<?xml version="1.0" standalone="no"?>
<!DOCTYPE svg PUBLIC "-//W3C//DTD SVG 1.1//EN" "http://www.w3.org/Graphics/SVG/1.1/DTD/svg11.dtd" >
<svg xmlns="http://www.w3.org/2000/svg">
<metadata></metadata>
<defs>
<font id="fontawesomeregular" horiz-adv-x="1755" >
<font-face units-per-em="2048" ascent="1755" descent="-293" />
<missing-glyph horiz-adv-x="512" />
<glyph unicode=" "  horiz-adv-x="512" />
<glyph unicode="&#x09;" horiz-adv-x="512" />
<glyph unicode="&#xa0;" horiz-adv-x="512" />
<glyph unicode="&#xa8;" horiz-adv-x="2048" />
<glyph unicode="&#xa9;" horiz-adv-x="2048" />
<glyph unicode="&#xae;" horiz-adv-x="2048" />
<glyph unicode="&#xb4;" horiz-adv-x="2048" />
<glyph unicode="&#xc6;" horiz-adv-x="2048" />
<glyph unicode="&#x2000;" horiz-adv-x="877" />
<glyph unicode="&#x2001;" />
<glyph unicode="&#x2002;" horiz-adv-x="877" />
<glyph unicode="&#x2003;" />
<glyph unicode="&#x2004;" horiz-adv-x="585" />
<glyph unicode="&#x2005;" horiz-adv-x="438" />
<glyph unicode="&#x2006;" horiz-adv-x="292" />
<glyph unicode="&#x2007;" horiz-adv-x="292" />
<glyph unicode="&#x2008;" horiz-adv-x="219" />
<glyph unicode="&#x2009;" horiz-adv-x="351" />
<glyph unicode="&#x200a;" horiz-adv-x="97" />
<glyph unicode="&#x202f;" horiz-adv-x="351" />
<glyph unicode="&#x205f;" horiz-adv-x="438" />
<glyph unicode="&#x2122;" horiz-adv-x="2048" />
<glyph unicode="&#x221e;" horiz-adv-x="2048" />
<glyph unicode="&#x2260;" horiz-adv-x="2048" />
<glyph unicode="&#xe000;" horiz-adv-x="571" d="M0 0z" />
<glyph unicode="&#xf000;" horiz-adv-x="2048" d="M1942 1543q0 -40 -49 -89l-723 -723v-877h366q30 0 51.5 -21.5t21.5 -51.5t-21.5 -52t-51.5 -22h-1024q-30 0 -51.5 22t-21.5 52t21.5 51.5t51.5 21.5h366v877l-723 723q-49 49 -49 89q0 37 35 51.5t78 14.5h1610q43 0 78 -14.5t35 -51.5z" />
<glyph unicode="&#xf001;" d="M1755 1499v-1280q0 -57 -38.5 -101.5t-97.5 -69t-118.5 -36.5t-110.5 -12t-110.5 12t-118.5 36.5t-98 69t-39 101.5t39 102t98 69t118.5 36.5t110.5 12.5q119 0 219 -45v614l-878 -271v-810q0 -46 -26 -84.5t-66.5 -63t-90.5 -41.5t-96 -24t-86 -7q-51 0 -110.5 12.5 t-118.5 36.5t-98 69t-39 102t39 101.5t98 69t118.5 36.5t110.5 12q121 0 219 -44v1105q0 36 21.5 65t56.5 40l951 293q13 4 32 4q46 0 77.5 -32t31.5 -78z" />
<glyph unicode="&#xf002;" horiz-adv-x="1901" d="M1317 805q0 211 -150.5 361.5t-361.5 150.5t-361.5 -150.5t-150.5 -361.5t150.5 -361.5t361.5 -150.5t361.5 150.5t150.5 361.5zM1902 -146q0 -60 -43.5 -103.5t-103.5 -43.5t-102 44l-392 391q-205 -142 -456 -142q-164 0 -313 63.5t-257 171.5t-171.5 257t-63.5 313 t63.5 313t171.5 256.5t257 171t313 63.5t313 -63.5t256.5 -171t171 -256.5t63.5 -313q0 -251 -142 -456l392 -392q43 -43 43 -103z" />
<glyph unicode="&#xf003;" horiz-adv-x="2048" d="M1902 37v877q-37 -42 -79 -75q-337 -260 -487 -386q-44 -36 -70.5 -56.5t-70 -48.5t-86 -41.5t-84.5 -13.5h-1h-1q-42 0 -84.5 13.5t-86 41.5t-70 48.5t-70.5 56.5q-150 126 -487 386q-42 33 -79 75v-877q0 -14 11.5 -25.5t25.5 -11.5h1682q14 0 25.5 11.5t11.5 25.5z M1902 1238v13v15.5t-1 14.5t-3.5 14.5t-6.5 10.5t-10.5 8.5t-15.5 2.5h-1682q-14 0 -25.5 -11.5t-11.5 -25.5q0 -95 44.5 -179t123.5 -146q289 -226 459 -362q8 -7 40 -34t52.5 -42.5t51 -36.5t57 -31t49.5 -10h1h1q23 0 49.5 10t57 31t51 36.5t52.5 42.5t40 34 q170 136 459 362q62 48 115 131.5t53 151.5zM2048 1280v-1243q0 -76 -53.5 -129.5t-129.5 -53.5h-1682q-76 0 -129.5 53.5t-53.5 129.5v1243q0 76 53.5 129.5t129.5 53.5h1682q76 0 129.5 -53.5t53.5 -129.5z" />
<glyph unicode="&#xf004;" horiz-adv-x="2048" d="M1024 -146q-30 0 -50 20l-713 688q-12 10 -31.5 30t-63.5 74.5t-78 111.5t-61 138t-27 158q0 251 145 393t401 142q71 0 144.5 -25t137.5 -66.5t109.5 -78.5t86.5 -77q41 40 86.5 77t109.5 78.5t137.5 66.5t144.5 25q256 0 401 -142t145 -393q0 -252 -262 -514l-712 -686 q-20 -20 -50 -20z" />
<glyph unicode="&#xf005;" horiz-adv-x="1901" d="M1902 1016q0 -25 -30 -55l-415 -404l98 -572q2 -16 2 -23q0 -24 -12 -40.5t-35 -16.5q-22 0 -46 14l-513 270l-513 -270q-26 -14 -46 -14q-23 0 -35.5 16.5t-12.5 40.5q0 7 2 23l99 572l-416 404q-29 31 -29 55q0 42 64 53l574 83l257 520q21 47 56 47t56 -47l257 -520 l574 -83q64 -12 64 -53z" />
<glyph unicode="&#xf006;" horiz-adv-x="1901" d="M1299 608l350 339l-482 71l-216 437l-216 -437l-482 -71l349 -339l-83 -481l432 227l431 -227zM1902 1016q0 -25 -30 -55l-415 -404l98 -572q2 -16 2 -23q0 -25 -12 -41t-35 -16q-22 0 -46 14l-513 270l-513 -270q-26 -14 -46 -14q-23 0 -35.5 16.5t-12.5 40.5q0 7 2 23 l99 572l-416 404q-29 31 -29 55q0 42 64 53l574 83l257 520q21 47 56 47t56 -47l257 -520l574 -83q64 -12 64 -53z" />
<glyph unicode="&#xf007;" horiz-adv-x="1609" d="M1609 150q0 -137 -83.5 -216.5t-221.5 -79.5h-999q-138 0 -221.5 79.5t-83.5 216.5q0 60 4 117.5t15.5 124.5t30 124.5t49.5 111.5t71 92.5t98 61.5t127 23q10 0 48 -25t85.5 -54.5t123.5 -54.5t153 -25t153 25t123 54.5t85 54.5t48 25q69 0 127 -23t98 -61.5t71 -92.5 t49.5 -111.5t30 -124.5t15.5 -124.5t4 -117.5zM1243 1170q0 -182 -128.5 -310.5t-309.5 -128.5t-310 128.5t-129 310.5t129 310.5t310 128.5t309.5 -128.5t128.5 -310.5z" />
<glyph unicode="&#xf008;" horiz-adv-x="2194" d="M439 -73v146q0 30 -21.5 51.5t-51.5 21.5h-147q-30 0 -51.5 -21.5t-21.5 -51.5v-146q0 -30 21.5 -51.5t51.5 -21.5h147q30 0 51.5 21.5t21.5 51.5zM439 366v146q0 30 -21.5 51.5t-51.5 21.5h-147q-30 0 -51.5 -21.5t-21.5 -51.5v-146q0 -30 21.5 -51.5t51.5 -21.5h147 q30 0 51.5 21.5t21.5 51.5zM439 805v146q0 30 -21.5 51.5t-51.5 21.5h-147q-30 0 -51.5 -21.5t-21.5 -51.5v-146q0 -30 21.5 -52t51.5 -22h147q30 0 51.5 22t21.5 52zM1609 -73v585q0 30 -21.5 51.5t-51.5 21.5h-878q-30 0 -51.5 -21.5t-21.5 -51.5v-585q0 -30 21.5 -51.5 t51.5 -21.5h878q30 0 51.5 21.5t21.5 51.5zM439 1243v147q0 30 -21.5 51.5t-51.5 21.5h-147q-30 0 -51.5 -21.5t-21.5 -51.5v-147q0 -30 21.5 -51.5t51.5 -21.5h147q30 0 51.5 21.5t21.5 51.5zM2048 -73v146q0 30 -21.5 51.5t-51.5 21.5h-146q-30 0 -52 -21.5t-22 -51.5 v-146q0 -30 22 -51.5t52 -21.5h146q30 0 51.5 21.5t21.5 51.5zM1609 805v585q0 30 -21.5 51.5t-51.5 21.5h-878q-30 0 -51.5 -21.5t-21.5 -51.5v-585q0 -30 21.5 -52t51.5 -22h878q30 0 51.5 22t21.5 52zM2048 366v146q0 30 -21.5 51.5t-51.5 21.5h-146q-30 0 -52 -21.5 t-22 -51.5v-146q0 -30 22 -51.5t52 -21.5h146q30 0 51.5 21.5t21.5 51.5zM2048 805v146q0 30 -21.5 51.5t-51.5 21.5h-146q-30 0 -52 -21.5t-22 -51.5v-146q0 -30 22 -52t52 -22h146q30 0 51.5 22t21.5 52zM2048 1243v147q0 30 -21.5 51.5t-51.5 21.5h-146q-30 0 -52 -21.5 t-22 -51.5v-147q0 -30 22 -51.5t52 -21.5h146q30 0 51.5 21.5t21.5 51.5zM2194 1426v-1536q0 -76 -53.5 -129.5t-129.5 -53.5h-1828q-76 0 -129.5 53.5t-53.5 129.5v1536q0 76 53.5 129.5t129.5 53.5h1828q76 0 129.5 -53.5t53.5 -129.5z" />
<glyph unicode="&#xf009;" horiz-adv-x="1901" d="M878 585v-439q0 -60 -43.5 -103t-103.5 -43h-585q-60 0 -103 43t-43 103v439q0 60 43 103t103 43h585q60 0 103.5 -43t43.5 -103zM878 1463v-439q0 -60 -43.5 -103t-103.5 -43h-585q-60 0 -103 43t-43 103v439q0 60 43 103t103 43h585q60 0 103.5 -43t43.5 -103z M1902 585v-439q0 -60 -43.5 -103t-103.5 -43h-585q-60 0 -103 43t-43 103v439q0 60 43 103t103 43h585q60 0 103.5 -43t43.5 -103zM1902 1463v-439q0 -60 -43.5 -103t-103.5 -43h-585q-60 0 -103 43t-43 103v439q0 60 43 103t103 43h585q60 0 103.5 -43t43.5 -103z" />
<glyph unicode="&#xf00a;" horiz-adv-x="2048" d="M585 329v-219q0 -46 -32 -78t-78 -32h-365q-46 0 -78 32t-32 78v219q0 46 32 78t78 32h365q46 0 78 -32t32 -78zM585 914v-219q0 -46 -32 -78t-78 -32h-365q-46 0 -78 32t-32 78v219q0 46 32 78t78 32h365q46 0 78 -32t32 -78zM1317 329v-219q0 -46 -32 -78t-78 -32h-366 q-46 0 -78 32t-32 78v219q0 46 32 78t78 32h366q46 0 78 -32t32 -78zM585 1499v-219q0 -46 -32 -78t-78 -32h-365q-46 0 -78 32t-32 78v219q0 46 32 78t78 32h365q46 0 78 -32t32 -78zM1317 914v-219q0 -46 -32 -78t-78 -32h-366q-46 0 -78 32t-32 78v219q0 46 32 78t78 32 h366q46 0 78 -32t32 -78zM2048 329v-219q0 -46 -32 -78t-78 -32h-365q-46 0 -78 32t-32 78v219q0 46 32 78t78 32h365q46 0 78 -32t32 -78zM1317 1499v-219q0 -46 -32 -78t-78 -32h-366q-46 0 -78 32t-32 78v219q0 46 32 78t78 32h366q46 0 78 -32t32 -78zM2048 914v-219 q0 -46 -32 -78t-78 -32h-365q-46 0 -78 32t-32 78v219q0 46 32 78t78 32h365q46 0 78 -32t32 -78zM2048 1499v-219q0 -46 -32 -78t-78 -32h-365q-46 0 -78 32t-32 78v219q0 46 32 78t78 32h365q46 0 78 -32t32 -78z" />
<glyph unicode="&#xf00b;" horiz-adv-x="2048" d="M585 329v-219q0 -46 -32 -78t-78 -32h-365q-46 0 -78 32t-32 78v219q0 46 32 78t78 32h365q46 0 78 -32t32 -78zM585 914v-219q0 -46 -32 -78t-78 -32h-365q-46 0 -78 32t-32 78v219q0 46 32 78t78 32h365q46 0 78 -32t32 -78zM2048 329v-219q0 -46 -32 -78t-78 -32 h-1097q-46 0 -78 32t-32 78v219q0 46 32 78t78 32h1097q46 0 78 -32t32 -78zM585 1499v-219q0 -46 -32 -78t-78 -32h-365q-46 0 -78 32t-32 78v219q0 46 32 78t78 32h365q46 0 78 -32t32 -78zM2048 914v-219q0 -46 -32 -78t-78 -32h-1097q-46 0 -78 32t-32 78v219 q0 46 32 78t78 32h1097q46 0 78 -32t32 -78zM2048 1499v-219q0 -46 -32 -78t-78 -32h-1097q-46 0 -78 32t-32 78v219q0 46 32 78t78 32h1097q46 0 78 -32t32 -78z" />
<glyph unicode="&#xf00c;" horiz-adv-x="2048" d="M1910 1109q0 -46 -32 -78l-828 -828l-155 -155q-32 -32 -78 -32t-78 32l-155 155l-414 414q-32 32 -32 78t32 78l156 155q32 32 77 32q46 0 78 -32l336 -337l750 751q32 32 78 32q45 0 77 -32l156 -156q32 -32 32 -77z" />
<glyph unicode="&#xf00d;" horiz-adv-x="1609" d="M1483 245q0 -46 -32 -78l-155 -156q-32 -32 -78 -32q-45 0 -77 32l-336 336l-336 -336q-32 -32 -78 -32t-78 32l-155 156q-32 32 -32 78q0 45 32 77l336 336l-336 336q-32 32 -32 78t32 78l155 155q32 32 78 32t78 -32l336 -336l336 336q32 32 77 32q46 0 78 -32 l155 -155q32 -32 32 -78t-32 -78l-336 -336l336 -336q32 -32 32 -77z" />
<glyph unicode="&#xf00e;" horiz-adv-x="1901" d="M1170 841v-73q0 -14 -11 -25.5t-25 -11.5h-256v-256q0 -14 -11.5 -25t-25.5 -11h-73q-14 0 -25.5 11t-11.5 25v256h-256q-14 0 -25 11.5t-11 25.5v73q0 14 11 25.5t25 11.5h256v256q0 14 11.5 25t25.5 11h73q14 0 25.5 -11t11.5 -25v-256h256q14 0 25 -11.5t11 -25.5z M1317 805q0 211 -150.5 361.5t-361.5 150.5t-361.5 -150.5t-150.5 -361.5t150.5 -361.5t361.5 -150.5t361.5 150.5t150.5 361.5zM1902 -146q0 -61 -43 -104t-104 -43q-60 0 -102 44l-392 391q-205 -142 -456 -142q-164 0 -313 63.5t-257 171.5t-171.5 257t-63.5 313 t63.5 313t171.5 256.5t257 171t313 63.5t313 -63.5t256.5 -171t171 -256.5t63.5 -313q0 -251 -142 -456l392 -392q43 -43 43 -103z" />
<glyph unicode="&#xf010;" horiz-adv-x="1901" d="M1170 841v-73q0 -14 -11 -25.5t-25 -11.5h-659q-14 0 -25 11.5t-11 25.5v73q0 14 11 25.5t25 11.5h659q14 0 25 -11.5t11 -25.5zM1317 805q0 211 -150.5 361.5t-361.5 150.5t-361.5 -150.5t-150.5 -361.5t150.5 -361.5t361.5 -150.5t361.5 150.5t150.5 361.5zM1902 -146 q0 -61 -43 -104t-104 -43q-60 0 -102 44l-392 391q-205 -142 -456 -142q-164 0 -313 63.5t-257 171.5t-171.5 257t-63.5 313t63.5 313t171.5 256.5t257 171t313 63.5t313 -63.5t256.5 -171t171 -256.5t63.5 -313q0 -251 -142 -456l392 -392q43 -43 43 -103z" />
<glyph unicode="&#xf011;" d="M1755 731q0 -142 -44.5 -276t-125.5 -242t-189 -189t-242 -125.5t-276 -44.5q-178 0 -340.5 69.5t-280 187t-187.5 280t-70 340.5q0 209 92 392.5t259 308.5q49 37 108.5 28.5t95.5 -57.5q37 -48 28.5 -108t-56.5 -96q-112 -84 -173 -206.5t-61 -261.5q0 -158 78.5 -293 t213.5 -213.5t293 -78.5t293 78.5t213.5 213.5t78.5 293q0 139 -61 261.5t-173 206.5q-48 36 -57 96t28 108q36 49 96.5 57.5t108.5 -28.5q167 -125 258.5 -308.5t91.5 -392.5zM1024 1609v-731q0 -60 -43 -103.5t-103 -43.5t-103.5 43.5t-43.5 103.5v731q0 60 43.5 103 t103.5 43t103 -43t43 -103z" />
<glyph unicode="&#xf012;" horiz-adv-x="2048" d="M293 110v-220q0 -16 -10.5 -26t-26.5 -10h-219q-16 0 -26.5 10t-10.5 26v220q0 16 10.5 26t26.5 10h219q16 0 26.5 -10t10.5 -26zM731 256v-366q0 -16 -10 -26t-26 -10h-220q-16 0 -26 10t-10 26v366q0 16 10 26.5t26 10.5h220q16 0 26 -10.5t10 -26.5zM1170 549v-659 q0 -16 -10 -26t-26 -10h-220q-16 0 -26 10t-10 26v659q0 16 10 26t26 10h220q16 0 26 -10t10 -26zM1609 987v-1097q0 -16 -10 -26t-26 -10h-220q-16 0 -26 10t-10 26v1097q0 16 10 26.5t26 10.5h220q16 0 26 -10.5t10 -26.5zM2048 1573v-1683q0 -16 -10.5 -26t-26.5 -10 h-219q-16 0 -26.5 10t-10.5 26v1683q0 16 10.5 26t26.5 10h219q16 0 26.5 -10t10.5 -26z" />
<glyph unicode="&#xf013;" d="M1170 731q0 121 -85.5 207t-206.5 86t-207 -86t-86 -207t86 -206.5t207 -85.5t206.5 85.5t85.5 206.5zM1755 856v-254q0 -13 -9.5 -26t-22.5 -15l-211 -32q-21 -60 -45 -104q39 -56 123 -158q11 -13 11 -28t-10 -26q-30 -41 -112.5 -123t-108.5 -82q-14 0 -29 10 l-158 124q-56 -29 -104 -44q-17 -152 -33 -212q-9 -32 -41 -32h-254q-16 0 -27.5 10t-13.5 24l-32 210q-50 16 -103 43l-161 -123q-11 -10 -29 -10q-15 0 -28 13q-143 129 -189 192q-8 11 -8 26q0 14 9 26q18 24 58.5 76t61.5 81q-34 65 -47 113l-209 31q-14 2 -23.5 14 t-9.5 27v254q0 13 9.5 26t21.5 15l212 32q14 46 45 105q-50 71 -122 158q-12 14 -12 27q0 11 11 26q29 40 111.5 122.5t108.5 82.5q15 0 30 -12l158 -122q56 29 104 44q17 152 33 212q9 32 41 32h254q16 0 27.5 -10t13.5 -24l32 -210q50 -16 103 -43l162 123q10 10 27 10 q15 0 29 -12q143 -131 188 -194q8 -9 8 -25q0 -14 -9 -26q-18 -24 -58.5 -76t-61.5 -81q33 -65 47 -112l209 -32q14 -2 23.5 -14t9.5 -27z" />
<glyph unicode="&#xf014;" horiz-adv-x="1609" d="M585 914v-658q0 -16 -10 -26.5t-26 -10.5h-74q-16 0 -26 10.5t-10 26.5v658q0 16 10 26.5t26 10.5h74q16 0 26 -10.5t10 -26.5zM878 914v-658q0 -16 -10.5 -26.5t-26.5 -10.5h-73q-16 0 -26.5 10.5t-10.5 26.5v658q0 16 10.5 26.5t26.5 10.5h73q16 0 26.5 -10.5 t10.5 -26.5zM1170 914v-658q0 -16 -10 -26.5t-26 -10.5h-73q-16 0 -26.5 10.5t-10.5 26.5v658q0 16 10.5 26.5t26.5 10.5h73q16 0 26 -10.5t10 -26.5zM1317 87v1083h-1024v-1083q0 -25 8 -46.5t16 -31t12 -9.5h951q4 0 12.5 9.5t16.5 31t8 46.5zM549 1317h512l-55 133 q-6 11 -20 13h-362q-12 -2 -19 -13zM1609 1280v-73q0 -16 -10 -26.5t-26 -10.5h-110v-1083q0 -95 -54 -164t-129 -69h-951q-76 0 -129.5 67t-53.5 161v1088h-109q-16 0 -26.5 10.5t-10.5 26.5v73q0 16 10.5 26.5t26.5 10.5h353l80 190q17 42 61.5 72t90.5 30h365 q46 0 90.5 -30t61.5 -72l80 -190h354q16 0 26 -10.5t10 -26.5z" />
<glyph unicode="&#xf015;" horiz-adv-x="1901" d="M1609 622v-549q0 -30 -21.5 -51.5t-51.5 -21.5h-439v439h-292v-439h-439q-30 0 -51.5 21.5t-21.5 51.5v549q0 1 0.5 3.5t0.5 3.5l657 541l657 -541q1 -2 1 -7zM1864 701l-71 -85q-10 -11 -24 -13h-3q-15 0 -24 8l-791 660l-791 -660q-13 -9 -27 -8q-14 2 -24 13l-71 85 q-10 11 -8.5 26t12.5 25l822 685q36 30 87 30t87 -30l279 -234v223q0 16 10 26.5t26 10.5h220q16 0 26 -10.5t10 -26.5v-466l250 -208q11 -10 13 -25t-8 -26z" />
<glyph unicode="&#xf016;" horiz-adv-x="1462" d="M146 0h1171v878h-476q-46 0 -78 31.5t-32 77.5v476h-585v-1463zM878 1024h341l-341 342v-342zM1463 878v-915q0 -46 -32 -77.5t-78 -31.5h-1243q-46 0 -78 31.5t-32 77.5v1536q0 46 32 78t78 32h621q45 0 100.5 -23t87.5 -55l466 -466q32 -32 55 -87t23 -100z" />
<glyph unicode="&#xf017;" d="M878 1609q179 0 341.5 -69.5t279.5 -187t186.5 -280t69.5 -341.5t-69.5 -341.5t-186.5 -279.5t-279.5 -186.5t-341.5 -69.5t-341.5 69.5t-280 186.5t-187 279.5t-69.5 341.5t69.5 341.5t187 280t280 187t341.5 69.5zM878 110q126 0 241 49t198.5 132.5t132.5 198.5 t49 241q0 169 -83 312t-226 226.5t-312 83.5t-312 -83.5t-226.5 -226.5t-83.5 -312t83.5 -312t226.5 -226t312 -83zM1170 731q30 0 51.5 -21.5t21.5 -51.5v-109q0 -30 -21.5 -52t-51.5 -22h-475q-30 0 -51.5 22t-21.5 52v548q0 30 21.5 51.5t51.5 21.5h110q30 0 51.5 -21.5 t21.5 -51.5v-366h292z" />
<glyph unicode="&#xf018;" horiz-adv-x="2194" d="M1270 617v5l-28 365q-1 15 -12.5 26t-26.5 11h-212q-15 0 -26.5 -11t-12.5 -26l-27 -365v-5q-1 -13 9.5 -22.5t23.5 -9.5h279q13 0 23.5 9.5t9.5 22.5zM2137 83q0 -32 -11.5 -57.5t-40.5 -25.5h-805q14 0 24.5 10.5t9.5 26.5l-23 292q-1 15 -12 26t-26 11h-311 q-15 0 -26.5 -11t-12.5 -26l-23 -292q-1 -16 9.5 -26.5t24.5 -10.5h-804q-29 0 -41 25.5t-12 57.5q0 61 30 133l476 1193q8 22 29.5 38t44.5 16h387q-15 0 -26.5 -11t-12.5 -26l-17 -219q-1 -16 8.5 -26.5t25.5 -10.5h190q16 0 25.5 10.5t8.5 26.5l-17 219q-1 15 -12.5 26 t-26.5 11h388q23 0 44 -16t29 -38l476 -1193q30 -72 30 -133z" />
<glyph unicode="&#xf019;" horiz-adv-x="1901" d="M1463 219q0 30 -21.5 52t-51.5 22t-51.5 -22t-21.5 -52t21.5 -51.5t51.5 -21.5t51.5 21.5t21.5 51.5zM1755 219q0 30 -21.5 52t-51.5 22t-51.5 -22t-21.5 -52t21.5 -51.5t51.5 -21.5t51.5 21.5t21.5 51.5zM1902 475v-365q0 -46 -32 -78t-78 -32h-1682q-46 0 -78 32 t-32 78v365q0 46 32 78t78 32h531l154 -155q66 -64 156 -64q89 0 155 64l156 155h530q46 0 78 -32t32 -78zM1530 1126q19 -47 -16 -80l-512 -512q-21 -22 -51 -22q-31 0 -52 22l-512 512q-35 33 -16 80q8 20 27 32t41 12h292v512q0 30 22 51.5t52 21.5h292q30 0 51.5 -21.5 t21.5 -51.5v-512h293q48 0 67 -44z" />
<glyph unicode="&#xf01a;" d="M1280 695q0 -15 -11 -28l-365 -364q-11 -10 -26 -10q-16 0 -27 10l-365 366q-17 19 -8 40q9 22 34 22h219v403q0 16 10.5 26t26.5 10h219q16 0 26.5 -10t10.5 -26v-403h219q16 0 26.5 -10t10.5 -26zM878 1353q-169 0 -312 -83.5t-226.5 -226.5t-83.5 -312t83.5 -312 t226.5 -226t312 -83q126 0 241 49t198.5 132.5t132.5 198.5t49 241q0 169 -83 312t-226 226.5t-312 83.5zM1755 731q0 -179 -69.5 -341.5t-186.5 -279.5t-279.5 -186.5t-341.5 -69.5t-341.5 69.5t-280 186.5t-187 279.5t-69.5 341.5t69.5 341.5t187 280t280 187t341.5 69.5 t341.5 -69.5t279.5 -187t186.5 -280t69.5 -341.5z" />
<glyph unicode="&#xf01b;" d="M1278 754q-10 -23 -35 -23h-219v-402q0 -16 -10.5 -26t-26.5 -10h-219q-16 0 -26.5 10t-10.5 26v402h-219q-16 0 -26.5 10.5t-10.5 26.5q0 13 12 27l364 365q11 10 27 10q15 0 26 -10l366 -366q17 -19 8 -40zM878 1353q-169 0 -312 -83.5t-226.5 -226.5t-83.5 -312 t83.5 -312t226.5 -226t312 -83q126 0 241 49t198.5 132.5t132.5 198.5t49 241q0 169 -83 312t-226 226.5t-312 83.5zM1755 731q0 -179 -69.5 -341.5t-186.5 -279.5t-279.5 -186.5t-341.5 -69.5t-341.5 69.5t-280 186.5t-187 279.5t-69.5 341.5t69.5 341.5t187 280t280 187 t341.5 69.5t341.5 -69.5t279.5 -187t186.5 -280t69.5 -341.5z" />
<glyph unicode="&#xf01c;" d="M1169 658h361q-1 3 -2.5 9.5t-2.5 9.5l-243 566h-809l-242 -566q-1 -3 -3 -9.5t-3 -9.5h361l109 -219h366zM1755 624v-551q0 -30 -21.5 -51.5t-51.5 -21.5h-1609q-30 0 -51.5 21.5t-21.5 51.5v551q0 70 29 141l272 630q12 28 41.5 48t59.5 20h951q30 0 60 -20t42 -48 l272 -630q28 -68 28 -141z" />
<glyph unicode="&#xf01d;" d="M1353 731q0 -42 -36 -62l-622 -366q-16 -10 -37 -10q-20 0 -36 9q-37 23 -37 64v731q0 41 37 64q38 21 73 -1l622 -366q36 -20 36 -63zM1499 731q0 169 -83 312t-226 226.5t-312 83.5t-312 -83.5t-226.5 -226.5t-83.5 -312t83.5 -312t226.5 -226t312 -83q126 0 241 49 t198.5 132.5t132.5 198.5t49 241zM1755 731q0 -179 -69.5 -341.5t-186.5 -279.5t-279.5 -186.5t-341.5 -69.5t-341.5 69.5t-280 186.5t-187 279.5t-69.5 341.5t69.5 341.5t187 280t280 187t341.5 69.5t341.5 -69.5t279.5 -187t186.5 -280t69.5 -341.5z" />
<glyph unicode="&#xf01e;" d="M1755 1463v-512q0 -30 -21.5 -51.5t-51.5 -21.5h-512q-22 0 -40.5 12.5t-26.5 32.5q-19 45 16 79l158 158q-81 75 -184 116t-215 41q-158 0 -293 -79t-213.5 -214t-78.5 -293t78.5 -293t213.5 -213.5t293 -78.5q136 0 256.5 59.5t204.5 168.5q8 11 27 13q17 0 28 -10 l157 -158q10 -9 10.5 -23.5t-8.5 -25.5q-125 -151 -301.5 -233.5t-373.5 -82.5q-178 0 -340.5 69.5t-280 187t-187.5 280t-70 340.5t70 340.5t187.5 280t280 187.5t340.5 70q168 0 325 -63.5t279 -178.5l149 147q33 35 80 16q44 -19 44 -67z" />
<glyph unicode="&#xf01f;" d="M1755 1198q0 -18 -13.5 -32t-30.5 -14h-1666q-17 0 -31 14t-14 32v245q0 10 7.5 15.5t15 6t22.5 0.5h1666q15 0 22 -0.5t14.5 -6t7.5 -15.5v-245zM1755 553q0 -17 -13.5 -30t-30.5 -13h-422q-47 0 -408.5 -156t-392.5 -156h-443q-17 0 -31 13.5t-14 30.5v246 q0 10 7.5 15.5t15 6t22.5 0.5h443q31 0 392.5 166t408.5 166h422q17 0 30.5 -14t13.5 -31v-244z" />
<glyph unicode="&#xf021;" d="M1727 549q0 -6 -1 -8q-48 -202 -169 -357.5t-298.5 -242.5t-385.5 -87q-167 0 -323 63t-278 179l-147 -147q-22 -22 -52 -22t-51.5 21.5t-21.5 51.5v512q0 30 21.5 51.5t51.5 21.5h512q30 0 51.5 -21.5t21.5 -51.5t-21 -51l-157 -157q80 -76 184 -117t214 -41 q153 0 286 74.5t212 204.5q18 30 61 134q10 26 34 26h219q16 0 26.5 -10.5t10.5 -25.5zM1755 1463v-512q0 -30 -21.5 -51.5t-51.5 -21.5h-512q-30 0 -51.5 21.5t-21.5 51.5q0 29 22 51l158 158q-82 76 -185.5 116.5t-213.5 40.5q-153 0 -286.5 -74.5t-212.5 -204.5 q-9 -16 -18 -34.5t-14.5 -31.5t-14 -35t-13.5 -33q-10 -26 -34 -26h-228q-15 0 -25.5 10.5t-10.5 25.5v8q74 307 308.5 497t548.5 190q167 0 324.5 -63.5t279.5 -178.5l149 147q22 22 51 22q30 0 51.5 -21.5t21.5 -51.5z" />
<glyph unicode="&#xf022;" horiz-adv-x="2048" d="M439 402v-73q0 -14 -11.5 -25t-25.5 -11h-73q-14 0 -25 11t-11 25v73q0 14 11 25.5t25 11.5h73q14 0 25.5 -11.5t11.5 -25.5zM439 695v-73q0 -14 -11.5 -25.5t-25.5 -11.5h-73q-14 0 -25 11.5t-11 25.5v73q0 14 11 25t25 11h73q14 0 25.5 -11t11.5 -25zM439 987v-73 q0 -14 -11.5 -25t-25.5 -11h-73q-14 0 -25 11t-11 25v73q0 14 11 25.5t25 11.5h73q14 0 25.5 -11.5t11.5 -25.5zM1755 402v-73q0 -14 -11 -25t-25 -11h-1097q-14 0 -25.5 11t-11.5 25v73q0 14 11.5 25.5t25.5 11.5h1097q14 0 25 -11.5t11 -25.5zM1755 695v-73 q0 -14 -11 -25.5t-25 -11.5h-1097q-14 0 -25.5 11.5t-11.5 25.5v73q0 14 11.5 25t25.5 11h1097q14 0 25 -11t11 -25zM1755 987v-73q0 -14 -11 -25t-25 -11h-1097q-14 0 -25.5 11t-11.5 25v73q0 14 11.5 25.5t25.5 11.5h1097q14 0 25 -11.5t11 -25.5zM1902 183v951 q0 14 -11.5 25t-25.5 11h-1682q-14 0 -25.5 -11t-11.5 -25v-951q0 -14 11.5 -25.5t25.5 -11.5h1682q14 0 25.5 11.5t11.5 25.5zM2048 1426v-1243q0 -76 -53.5 -129.5t-129.5 -53.5h-1682q-76 0 -129.5 53.5t-53.5 129.5v1243q0 76 53.5 129.5t129.5 53.5h1682 q76 0 129.5 -53.5t53.5 -129.5z" />
<glyph unicode="&#xf023;" horiz-adv-x="1316" d="M805 585q0 61 -43 103.5t-104 42.5t-103.5 -42.5t-42.5 -103.5q0 -42 22 -76.5t58 -53.5l-79 -262q-5 -18 6 -32q12 -15 30 -15h219q18 0 30 15q11 14 5 32l-78 262q36 19 58 53.5t22 76.5zM366 878h585v219q0 121 -86 207t-207 86t-206.5 -86t-85.5 -207v-219zM1317 768 v-658q0 -46 -32 -78t-78 -32h-1097q-46 0 -78 32t-32 78v658q0 46 32 78t78 32h36v219q0 138 69 256t187 187t256 69t256 -69t187 -187t69 -256v-219h37q46 0 78 -32t32 -78z" />
<glyph unicode="&#xf024;" horiz-adv-x="2048" d="M366 1463q0 -40 -19.5 -73t-53.5 -53v-1447q0 -14 -11.5 -25t-25.5 -11h-73q-14 0 -25.5 11t-11.5 25v1447q-34 20 -53.5 53t-19.5 73q0 61 42.5 103.5t103.5 42.5t104 -42.5t43 -103.5zM2048 1390v-872q0 -29 -14.5 -45t-44.5 -31q-243 -132 -422 -132q-58 0 -114 16.5 t-103.5 40t-97 47t-113 40t-132.5 16.5q-220 0 -530 -167q-19 -10 -38 -10q-30 0 -51.5 21.5t-21.5 51.5v848q0 38 35 63q24 16 90 49q270 137 482 137q121 0 226.5 -33t251.5 -101q44 -22 101 -22q61 0 134 24.5t126 53.5t100.5 53.5t62.5 24.5q30 0 51.5 -21.5t21.5 -51.5 z" />
<glyph unicode="&#xf025;" horiz-adv-x="1901" d="M1902 743q0 -189 -69 -359l-23 -56l-211 -38q-25 -95 -103 -156t-179 -61v-36q0 -16 -10.5 -26.5t-26.5 -10.5h-73q-16 0 -26.5 10.5t-10.5 26.5v658q0 16 10.5 26t26.5 10h73q16 0 26.5 -10t10.5 -26v-37q81 0 148.5 -40.5t105.5 -108.5l78 13q33 107 33 221 q0 127 -60 246.5t-159 207t-234 140.5t-278 53q-191 0 -360.5 -89t-270.5 -239t-101 -319q0 -111 34 -221l77 -13q38 68 106 108.5t149 40.5v37q0 16 10.5 26t26.5 10h73q16 0 26 -10t10 -26v-658q0 -16 -10 -26.5t-26 -10.5h-73q-16 0 -26.5 10.5t-10.5 26.5v36 q-101 0 -179 61t-103 156l-212 38l-22 56q-69 170 -69 359q0 173 77 333t205 276.5t303.5 186.5t365.5 70t365.5 -70t303.5 -186.5t205 -276.5t77 -333z" />
<glyph unicode="&#xf026;" horiz-adv-x="877" d="M878 1353v-1243q0 -30 -21.5 -51.5t-51.5 -21.5q-31 0 -52 21l-380 381h-300q-30 0 -51.5 21.5t-21.5 51.5v439q0 30 21.5 51.5t51.5 21.5h300l380 381q21 21 52 21q30 0 51.5 -21.5t21.5 -51.5z" />
<glyph unicode="&#xf027;" horiz-adv-x="1316" d="M878 1353v-1243q0 -30 -21.5 -51.5t-51.5 -21.5q-31 0 -52 21l-380 381h-300q-30 0 -51.5 21.5t-21.5 51.5v439q0 30 21.5 51.5t51.5 21.5h300l380 381q21 21 52 21q30 0 51.5 -21.5t21.5 -51.5zM1317 731q0 -86 -49 -161t-129 -107q-11 -6 -28 -6q-30 0 -51.5 21 t-21.5 52q0 24 13.5 40.5t33 28.5t39 26t33 41t13.5 65t-13.5 65t-33 41.5t-39 26t-33 28.5t-13.5 41q0 31 21.5 52t51.5 21q17 0 28 -6q79 -31 128.5 -106.5t49.5 -162.5z" />
<glyph unicode="&#xf028;" horiz-adv-x="1901" d="M878 1353v-1243q0 -30 -21.5 -51.5t-51.5 -21.5q-31 0 -52 21l-380 381h-300q-30 0 -51.5 21.5t-21.5 51.5v439q0 30 21.5 51.5t51.5 21.5h300l380 381q21 21 52 21q30 0 51.5 -21.5t21.5 -51.5zM1317 731q0 -86 -49 -161t-129 -107q-11 -6 -28 -6q-30 0 -51.5 21 t-21.5 52q0 24 13.5 40.5t33 28.5t39 26t33 41t13.5 65t-13.5 65t-33 41.5t-39 26t-33 28.5t-13.5 41q0 31 21.5 52t51.5 21q17 0 28 -6q79 -31 128.5 -106.5t49.5 -162.5zM1609 731q0 -175 -97 -323t-257 -215q-18 -6 -29 -6q-31 0 -52.5 22t-21.5 52q0 43 45 67 q65 33 86 50q85 61 132.5 155t47.5 198t-47.5 198.5t-132.5 155.5q-21 17 -86 50q-45 24 -45 67q0 30 21.5 51.5t51.5 21.5q15 0 30 -5q160 -67 257 -215.5t97 -323.5zM1902 731q0 -263 -145 -482.5t-387 -323.5q-18 -6 -29 -6q-30 0 -52 21.5t-22 51.5q0 40 45 67 q8 5 25.5 12.5t25.5 11.5q49 26 94 59q140 104 219 259.5t79 329.5q0 175 -79 330.5t-219 259.5q-40 29 -94 58q-8 4 -25.5 11.5t-25.5 12.5q-45 27 -45 68q0 30 22 51.5t52 21.5q11 0 29 -6q242 -104 387 -324t145 -483z" />
<glyph unicode="&#xf029;" horiz-adv-x="1609" d="M439 439v-146h-146v146h146zM439 1317v-147h-146v147h146zM1317 1317v-147h-147v147h147zM146 147h439v438h-439v-438zM146 1024h439v439h-439v-439zM1024 1024h439v439h-439v-439zM731 731v-731h-731v731h731zM1317 146v-146h-147v146h147zM1609 146v-146h-146v146h146z M1609 731v-438h-439v146h-146v-439h-146v731h439v-146h146v146h146zM731 1609v-731h-731v731h731zM1609 1609v-731h-731v731h731z" />
<glyph unicode="&#xf02a;" horiz-adv-x="2048" d="M72 0h-72v1609h72v-1609zM144 1h-37v1608h37v-1608zM251 1h-35v1608h35v-1608zM431 1h-36v1608h36v-1608zM610 1h-71v1608h71v-1608zM754 1h-35v1608h35v-1608zM826 1h-35v1608h35v-1608zM898 1h-35v1608h35v-1608zM1078 1h-72v1608h72v-1608zM1257 1h-72v1608h72v-1608z M1401 1h-72v1608h72v-1608zM1545 1h-72v1608h72v-1608zM1653 1h-72v1608h72v-1608zM1869 1h-108v1608h108v-1608zM1941 1h-37v1608h37v-1608zM2048 0h-72v1609h72v-1609z" />
<glyph unicode="&#xf02b;" d="M512 1243q0 61 -42.5 104t-103.5 43t-104 -43t-43 -104t43 -103.5t104 -42.5t103.5 42.5t42.5 103.5zM1731 585q0 -61 -42 -103l-561 -562q-44 -42 -104 -42q-61 0 -103 42l-817 818q-43 43 -73.5 115.5t-30.5 133.5v476q0 60 43 103t103 43h476q61 0 134 -30.5 t116 -73.5l817 -816q42 -44 42 -104z" />
<glyph unicode="&#xf02c;" horiz-adv-x="2194" d="M512 1243q0 61 -42.5 104t-103.5 43t-104 -43t-43 -104t43 -103.5t104 -42.5t103.5 42.5t42.5 103.5zM1731 585q0 -61 -42 -103l-561 -562q-44 -42 -104 -42q-61 0 -103 42l-817 818q-43 43 -73.5 115.5t-30.5 133.5v476q0 60 43 103t103 43h476q61 0 134 -30.5 t116 -73.5l817 -816q42 -44 42 -104zM2170 585q0 -61 -42 -103l-561 -562q-44 -42 -104 -42q-40 0 -66.5 16t-61.5 51l537 537q42 42 42 103q0 60 -42 104l-817 816q-43 43 -116 73.5t-134 30.5h256q61 0 134 -30.5t116 -73.5l817 -816q42 -44 42 -104z" />
<glyph unicode="&#xf02d;" horiz-adv-x="1901" d="M1873 1209q46 -65 21 -147l-315 -1036q-22 -73 -87.5 -122.5t-139.5 -49.5h-1055q-88 0 -170 61t-113 150q-28 79 -3 145q1 8 4 33t4 40q0 9 -3.5 24.5t-2.5 22.5q2 12 9 24t19 27.5t18 26.5q26 43 51 104t35 105q3 11 0 34t0 32q3 12 19 31.5t20 27.5q24 42 48.5 105.5 t28.5 102.5q1 10 -3.5 36.5t0.5 31.5q5 15 25.5 34.5t25.5 26.5q22 31 48.5 97.5t31.5 109.5q1 9 -3.5 28.5t-2.5 30.5q2 10 10 21.5t21 26t19 23.5q9 13 18.5 34.5t17 40.5t18.5 41t22.5 36.5t30 27t41 12.5t54.5 -6l-1 -3q38 10 59 10h869q85 0 131 -64q45 -62 20 -148 l-313 -1036q-29 -94 -52.5 -136t-63 -60.5t-113.5 -18.5h-993q-31 0 -43 -17q-12 -19 -1 -49q28 -80 164 -80h1055q33 0 64 18t40 47l343 1128q8 25 6 65q43 -17 67 -49zM657 1207q-5 -16 2 -26.5t23 -10.5h695q14 0 28.5 10.5t19.5 26.5l24 73q5 16 -2 26.5t-23 10.5h-695 q-14 0 -28.5 -10.5t-19.5 -26.5zM562 914q-5 -16 2 -26t23 -10h695q15 0 29 10.5t19 25.5l24 73q5 16 -2 26.5t-23 10.5h-695q-14 0 -28.5 -10.5t-19.5 -26.5z" />
<glyph unicode="&#xf02e;" horiz-adv-x="1462" d="M1330 1609q28 0 51 -10q37 -14 59.5 -46.5t22.5 -71.5v-1473q0 -39 -22.5 -71.5t-59.5 -46.5q-21 -9 -51 -9q-55 0 -95 37l-504 484l-504 -484q-41 -38 -94 -38q-28 0 -51 10q-37 14 -59.5 46.5t-22.5 71.5v1473q0 39 22.5 71.5t59.5 46.5q23 10 51 10h1197z" />
<glyph unicode="&#xf02f;" horiz-adv-x="1901" d="M439 0h1024v293h-1024v-293zM439 731h1024v439h-183q-46 0 -78 32t-32 78v183h-731v-732zM1755 658q0 30 -21.5 51.5t-51.5 21.5t-51.5 -21.5t-21.5 -51.5t21.5 -51.5t51.5 -21.5t51.5 21.5t21.5 51.5zM1902 658v-475q0 -14 -11.5 -25.5t-25.5 -11.5h-256v-183 q0 -46 -32 -77.5t-78 -31.5h-1097q-46 0 -77.5 31.5t-31.5 77.5v183h-256q-14 0 -25.5 11.5t-11.5 25.5v475q0 90 64.5 155t154.5 65h74v621q0 46 31.5 78t77.5 32h768q46 0 101 -23t87 -55l173 -173q32 -32 55 -87t23 -101v-292h73q90 0 155 -65t65 -155z" />
<glyph unicode="&#xf030;" horiz-adv-x="2194" d="M1097 987q137 0 233 -96.5t96 -232.5t-96 -232.5t-233 -96.5t-233 96.5t-96 232.5t96 232.5t233 96.5zM1902 1463q121 0 206.5 -86t85.5 -207v-1024q0 -121 -85.5 -206.5t-206.5 -85.5h-1609q-121 0 -207 85.5t-86 206.5v1024q0 121 86 207t207 86h256l58 155 q22 56 80 96.5t118 40.5h585q60 0 117.5 -40.5t79.5 -96.5l59 -155h256zM1097 146q104 0 198.5 40.5t163.5 109.5t109.5 163.5t40.5 198.5t-40.5 198.5t-109.5 163.5t-163.5 109.5t-198.5 40.5t-198.5 -40.5t-163.5 -109.5t-109.5 -163.5t-40.5 -198.5t40.5 -198.5 t109.5 -163.5t163.5 -109.5t198.5 -40.5z" />
<glyph unicode="&#xf031;" horiz-adv-x="1901" d="M829 1117l-195 -515q83 -1 175 -2t136 -1.5t61 -0.5l33 2q-31 95 -105 275q-58 146 -105 242zM24 -146h-24l2 90q23 8 92 21q101 19 125 35q22 16 55 78l271 704l320 827h86h60l13 -24l234 -548q127 -299 142 -340q40 -104 110 -268q25 -58 74 -188q25 -71 74 -170 q24 -55 40 -65q26 -23 79 -27q61 -8 118 -30q7 -42 7 -66q0 -15 -1 -29q-100 0 -220 9q-103 9 -216 9q-90 0 -154 -2l-229 -13l-66 -2q0 41 5 89l149 32q64 14 78 26q14 14 14 31q0 19 -7 37l-54 130l-105 261l-514 2q-40 -90 -119 -313q-26 -73 -26 -96q0 -36 19 -49 q31 -25 118 -37q3 0 15 -2t34.5 -6t46.5 -7q1 -32 1 -66q0 -20 -2 -31q-77 0 -399 23l-55 -9q-96 -16 -191 -16z" />
<glyph unicode="&#xf032;" horiz-adv-x="1609" d="M634 17q86 -36 160 -36q152 0 247 46q97 47 140 130q43 79 43 206q0 131 -47 206q-68 109 -161 144q-93 37 -282 37q-83 0 -116 -12v-164l-1 -198l4 -309q0 -19 13 -50zM618 870q47 -8 125 -8q200 0 302 74q101 74 101 256q0 129 -97 214q-95 85 -291 85q-62 0 -149 -14 q0 -50 2 -88q8 -129 7 -319l-1 -112q0 -49 1 -88zM0 -146l2 107q49 11 78 14q90 14 141 35q19 31 24 59q10 71 10 221l-2 568q-3 178 -11 462q-2 101 -12 125q-1 2 -14 13q-22 14 -79 17q-25 1 -130 15l-5 95l297 7l435 15l51 1q5 0 16 0.5t16 0.5q1 0 24.5 -0.5t46.5 -0.5 h85q101 0 218 -31q54 -16 110 -44q63 -32 116 -87q49 -52 74 -119q24 -64 24 -140q0 -81 -36 -146t-109 -120q-32 -24 -171 -88q201 -46 305 -167q105 -120 105 -269q0 -88 -33 -184q-24 -73 -81 -134q-76 -83 -160 -124q-85 -41 -232 -68q-94 -17 -226 -13l-226 5 q-95 2 -340 -13q-23 -2 -311 -12z" />
<glyph unicode="&#xf033;" horiz-adv-x="1170" d="M0 -144l19 97q12 4 88 23q87 22 133 45q33 41 47 115l31 159l64 306l13 73q10 50 20 96t18 77t14.5 54t10.5 35t4 13l33 179l18 72l25 154l9 57v44q-46 24 -164 32q-33 2 -44 4l22 118l362 -16q45 -2 84 -2q83 0 244 10q33 3 119 8q-1 -10 -4 -25t-3 -18q-7 -35 -14 -59 q-58 -21 -125 -35q-73 -18 -115 -35q-16 -41 -28 -101q-12 -56 -15 -94q-53 -243 -75 -349l-70 -356l-43 -180l-49 -269l-14 -51q-2 -8 1 -31q72 -16 136 -24q12 -2 75 -12q-1 -26 -8 -66q-5 -25 -10 -47q-20 0 -26 -1q-27 -2 -48 -2q-9 0 -32 3q-38 7 -166 20l-226 2 q-45 1 -199 -13q-73 -8 -112 -10z" />
<glyph unicode="&#xf034;" horiz-adv-x="2048" d="M93 1608l61 -31q27 -6 241 -6h149l22 4l131 1l246 -1h335l39 -2q16 -1 32 8t24 18l8 9l48 1q17 0 32 -1q1 -30 1 -120v-150l1 -114l-1 -66q0 -32 -5 -59q-47 -17 -78 -20q-27 47 -61 146q-9 28 -17.5 72t-13.5 74.5t-7 33.5q-15 17 -31 21q-8 2 -48.5 2t-118 -1 t-127.5 -1q-46 0 -76 -5q-11 -118 -9 -156l1 -174v-379l3 -410l-1 -168q1 -15 0 -23t0.5 -18t1.5 -13.5t2 -11t2.5 -10t3 -10t3.5 -11.5q12 -6 46.5 -19.5t54.5 -17.5q8 -1 120 -34q35 -10 58 -21q5 -52 5 -57q0 -10 -3 -33q-16 -1 -39 -1q-131 0 -214 11q-76 9 -272 9 q-96 0 -266 -16q-55 -4 -80 -4q-2 26 -2 29l-1 30v10q24 37 90 56q159 45 182 58q10 22 13 64q10 200 7 494l-6 490q0 49 0.5 130t0 127.5t-2.5 59.5q-2 12 -7 17q-10 6 -16 7q-51 7 -169 7q-49 0 -114 -15t-84 -28q-14 -10 -24.5 -38t-25 -85.5t-27.5 -96.5 q-7 -22 -22 -36.5t-24 -14.5q-53 33 -64 50v340v98zM1993 146q38 0 48.5 -21t-12.5 -51l-144 -185q-23 -30 -56 -30t-56 30l-144 185q-23 30 -13 51t48 21h91v1171h-91q-38 0 -48 21t13 51l144 185q23 30 56 30t56 -30l144 -185q23 -30 12.5 -51t-48.5 -21h-91v-1171h91z " />
<glyph unicode="&#xf035;" d="M93 1608l61 -31q27 -6 241 -6h149l22 4l131 1l510 -1h363l39 -2q16 -1 32 8t24 18l8 9l48 1q17 0 32 -1q1 -30 1 -120v-150l1 -114l-1 -66q0 -38 -4 -59q-47 -17 -78 -20q-29 51 -62 146q-9 28 -17.5 72t-13 74.5t-6.5 33.5q-15 17 -31 21q-8 2 -67 2t-158.5 -1 t-146.5 -1q-115 0 -145 -5q-11 -118 -9 -156l1 -174v60l4 -410l-2 -168q1 -16 0 -23t0.5 -18t1.5 -14t2 -11l2.5 -10t3 -10.5t3.5 -11.5q11 -6 46 -19t56 -17q8 -1 120 -34q33 -9 57 -21q1 -13 2.5 -26t2.5 -20.5t1 -10.5t-4 -33q-16 -1 -39 -1q-130 0 -213 11q-77 9 -272 9 q-90 0 -267 -15q-41 -5 -80 -5q-2 26 -2 29l-1 30v10q24 37 90 56q162 45 182 57q11 25 14 64q6 125 6 495l-5 51q0 300 -3 317q-2 13 -6 17q-10 6 -16 7q-51 7 -170 7q-57 0 -192.5 -16t-151.5 -27q-14 -10 -24.5 -38t-25 -85.5t-27.5 -96.5q-7 -22 -22 -36.5t-24 -14.5 q-53 33 -64 50v340v98zM1720 129q30 -23 30 -56t-30 -56l-185 -144q-30 -23 -51 -12.5t-21 48.5v91h-1170v-91q0 -38 -21 -48.5t-51 12.5l-186 144q-30 23 -30 56t30 56l186 144q30 23 51 13t21 -48v-92h1170v92q0 38 21 48t51 -13z" />
<glyph unicode="&#xf036;" horiz-adv-x="2048" d="M2048 219v-146q0 -30 -21.5 -51.5t-51.5 -21.5h-1902q-30 0 -51.5 21.5t-21.5 51.5v146q0 30 21.5 52t51.5 22h1902q30 0 51.5 -22t21.5 -52zM1609 658v-146q0 -30 -21.5 -51.5t-51.5 -21.5h-1463q-30 0 -51.5 21.5t-21.5 51.5v146q0 30 21.5 51.5t51.5 21.5h1463 q30 0 51.5 -21.5t21.5 -51.5zM1902 1097v-146q0 -30 -21.5 -51.5t-51.5 -21.5h-1756q-30 0 -51.5 21.5t-21.5 51.5v146q0 30 21.5 51.5t51.5 21.5h1756q30 0 51.5 -21.5t21.5 -51.5zM1463 1536v-146q0 -30 -21.5 -51.5t-51.5 -21.5h-1317q-30 0 -51.5 21.5t-21.5 51.5v146 q0 30 21.5 51.5t51.5 21.5h1317q30 0 51.5 -21.5t21.5 -51.5z" />
<glyph unicode="&#xf037;" horiz-adv-x="2048" d="M2048 219v-146q0 -30 -21.5 -51.5t-51.5 -21.5h-1902q-30 0 -51.5 21.5t-21.5 51.5v146q0 30 21.5 52t51.5 22h1902q30 0 51.5 -22t21.5 -52zM1609 658v-146q0 -30 -21.5 -51.5t-51.5 -21.5h-1024q-30 0 -51.5 21.5t-21.5 51.5v146q0 30 21.5 51.5t51.5 21.5h1024 q30 0 51.5 -21.5t21.5 -51.5zM1902 1097v-146q0 -30 -21.5 -51.5t-51.5 -21.5h-1610q-30 0 -51.5 21.5t-21.5 51.5v146q0 30 21.5 51.5t51.5 21.5h1610q30 0 51.5 -21.5t21.5 -51.5zM1463 1536v-146q0 -30 -21.5 -51.5t-51.5 -21.5h-732q-30 0 -51.5 21.5t-21.5 51.5v146 q0 30 21.5 51.5t51.5 21.5h732q30 0 51.5 -21.5t21.5 -51.5z" />
<glyph unicode="&#xf038;" horiz-adv-x="2048" d="M2048 219v-146q0 -30 -21.5 -51.5t-51.5 -21.5h-1902q-30 0 -51.5 21.5t-21.5 51.5v146q0 30 21.5 52t51.5 22h1902q30 0 51.5 -22t21.5 -52zM2048 658v-146q0 -30 -21.5 -51.5t-51.5 -21.5h-1463q-30 0 -51.5 21.5t-21.5 51.5v146q0 30 21.5 51.5t51.5 21.5h1463 q30 0 51.5 -21.5t21.5 -51.5zM2048 1097v-146q0 -30 -21.5 -51.5t-51.5 -21.5h-1756q-30 0 -51.5 21.5t-21.5 51.5v146q0 30 21.5 51.5t51.5 21.5h1756q30 0 51.5 -21.5t21.5 -51.5zM2048 1536v-146q0 -30 -21.5 -51.5t-51.5 -21.5h-1317q-30 0 -51.5 21.5t-21.5 51.5v146 q0 30 21.5 51.5t51.5 21.5h1317q30 0 51.5 -21.5t21.5 -51.5z" />
<glyph unicode="&#xf039;" horiz-adv-x="2048" d="M2048 219v-146q0 -30 -21.5 -51.5t-51.5 -21.5h-1902q-30 0 -51.5 21.5t-21.5 51.5v146q0 30 21.5 52t51.5 22h1902q30 0 51.5 -22t21.5 -52zM2048 658v-146q0 -30 -21.5 -51.5t-51.5 -21.5h-1902q-30 0 -51.5 21.5t-21.5 51.5v146q0 30 21.5 51.5t51.5 21.5h1902 q30 0 51.5 -21.5t21.5 -51.5zM2048 1097v-146q0 -30 -21.5 -51.5t-51.5 -21.5h-1902q-30 0 -51.5 21.5t-21.5 51.5v146q0 30 21.5 51.5t51.5 21.5h1902q30 0 51.5 -21.5t21.5 -51.5zM2048 1536v-146q0 -30 -21.5 -51.5t-51.5 -21.5h-1902q-30 0 -51.5 21.5t-21.5 51.5v146 q0 30 21.5 51.5t51.5 21.5h1902q30 0 51.5 -21.5t21.5 -51.5z" />
<glyph unicode="&#xf03a;" horiz-adv-x="2048" d="M293 256v-219q0 -14 -11.5 -25.5t-25.5 -11.5h-219q-14 0 -25.5 11.5t-11.5 25.5v219q0 14 11.5 25.5t25.5 11.5h219q14 0 25.5 -11.5t11.5 -25.5zM293 695v-220q0 -14 -11.5 -25t-25.5 -11h-219q-14 0 -25.5 11t-11.5 25v220q0 14 11.5 25t25.5 11h219q14 0 25.5 -11 t11.5 -25zM293 1134v-220q0 -14 -11.5 -25t-25.5 -11h-219q-14 0 -25.5 11t-11.5 25v220q0 14 11.5 25t25.5 11h219q14 0 25.5 -11t11.5 -25zM2048 256v-219q0 -14 -11.5 -25.5t-25.5 -11.5h-1536q-14 0 -25 11.5t-11 25.5v219q0 14 11 25.5t25 11.5h1536q14 0 25.5 -11.5 t11.5 -25.5zM293 1573v-220q0 -14 -11.5 -25t-25.5 -11h-219q-14 0 -25.5 11t-11.5 25v220q0 14 11.5 25t25.5 11h219q14 0 25.5 -11t11.5 -25zM2048 695v-220q0 -14 -11.5 -25t-25.5 -11h-1536q-14 0 -25 11t-11 25v220q0 14 11 25t25 11h1536q14 0 25.5 -11t11.5 -25z M2048 1134v-220q0 -14 -11.5 -25t-25.5 -11h-1536q-14 0 -25 11t-11 25v220q0 14 11 25t25 11h1536q14 0 25.5 -11t11.5 -25zM2048 1573v-220q0 -14 -11.5 -25t-25.5 -11h-1536q-14 0 -25 11t-11 25v220q0 14 11 25t25 11h1536q14 0 25.5 -11t11.5 -25z" />
<glyph unicode="&#xf03b;" horiz-adv-x="2048" d="M439 1134v-659q0 -14 -11.5 -25t-25.5 -11q-16 0 -26 10l-329 329q-10 10 -10 27q0 16 10 26l329 329q10 10 26 10q14 0 25.5 -11t11.5 -25zM2048 256v-219q0 -14 -11.5 -25.5t-25.5 -11.5h-1974q-14 0 -25.5 11.5t-11.5 25.5v219q0 14 11.5 25.5t25.5 11.5h1974 q14 0 25.5 -11.5t11.5 -25.5zM2048 695v-220q0 -14 -11.5 -25t-25.5 -11h-1243q-14 0 -25.5 11t-11.5 25v220q0 14 11.5 25t25.5 11h1243q14 0 25.5 -11t11.5 -25zM2048 1134v-220q0 -14 -11.5 -25t-25.5 -11h-1243q-14 0 -25.5 11t-11.5 25v220q0 14 11.5 25t25.5 11h1243 q14 0 25.5 -11t11.5 -25zM2048 1573v-220q0 -14 -11.5 -25t-25.5 -11h-1974q-14 0 -25.5 11t-11.5 25v220q0 14 11.5 25t25.5 11h1974q14 0 25.5 -11t11.5 -25z" />
<glyph unicode="&#xf03c;" horiz-adv-x="2048" d="M402 805q0 -17 -10 -27l-329 -329q-10 -10 -26 -10q-14 0 -25.5 11t-11.5 25v659q0 14 11.5 25t25.5 11q16 0 26 -10l329 -329q10 -10 10 -26zM2048 256v-219q0 -14 -11.5 -25.5t-25.5 -11.5h-1974q-14 0 -25.5 11.5t-11.5 25.5v219q0 14 11.5 25.5t25.5 11.5h1974 q14 0 25.5 -11.5t11.5 -25.5zM2048 695v-220q0 -14 -11.5 -25t-25.5 -11h-1243q-14 0 -25.5 11t-11.5 25v220q0 14 11.5 25t25.5 11h1243q14 0 25.5 -11t11.5 -25zM2048 1134v-220q0 -14 -11.5 -25t-25.5 -11h-1243q-14 0 -25.5 11t-11.5 25v220q0 14 11.5 25t25.5 11h1243 q14 0 25.5 -11t11.5 -25zM2048 1573v-220q0 -14 -11.5 -25t-25.5 -11h-1974q-14 0 -25.5 11t-11.5 25v220q0 14 11.5 25t25.5 11h1974q14 0 25.5 -11t11.5 -25z" />
<glyph unicode="&#xf03d;" horiz-adv-x="2048" d="M2048 1353v-1243q0 -22 -12.5 -41t-32.5 -27q-15 -5 -28 -5q-32 0 -52 21l-460 461v-190q0 -137 -96.5 -233t-232.5 -96h-805q-137 0 -233 96t-96 233v805q0 136 96 232.5t233 96.5h805q136 0 232.5 -96.5t96.5 -232.5v-189l460 460q20 21 52 21q13 0 28 -5 q20 -8 32.5 -27t12.5 -41z" />
<glyph unicode="&#xf03e;" horiz-adv-x="2194" d="M731 1097q0 -91 -64 -155t-155 -64t-155 64t-64 155t64 155.5t155 64.5t155 -64.5t64 -155.5zM1902 658v-512h-1609v220l365 365l183 -182l585 585zM2011 1463h-1828q-14 0 -25.5 -11.5t-11.5 -25.5v-1389q0 -14 11.5 -25.5t25.5 -11.5h1828q14 0 25.5 11.5t11.5 25.5 v1389q0 14 -11.5 25.5t-25.5 11.5zM2194 1426v-1389q0 -76 -53.5 -129.5t-129.5 -53.5h-1828q-76 0 -129.5 53.5t-53.5 129.5v1389q0 76 53.5 129.5t129.5 53.5h1828q76 0 129.5 -53.5t53.5 -129.5z" />
<glyph unicode="&#xf040;" d="M415 0l104 104l-269 269l-104 -104v-123h147v-146h122zM1013 1061q0 11 -7.5 18t-18.5 7t-19 -8l-619 -620q-8 -8 -8 -19q0 -25 25 -25q11 0 19 8l620 619q8 8 8 20zM951 1280l475 -475l-951 -951h-475v475zM1731 1170q0 -61 -42 -103l-190 -189l-475 475l190 189 q41 43 103 43q61 0 104 -43l268 -268q42 -44 42 -104z" />
<glyph unicode="&#xf041;" horiz-adv-x="1170" d="M878 1024q0 121 -86 207t-207 86t-206.5 -86t-85.5 -207t85.5 -207t206.5 -86t207 86t86 207zM1170 1024q0 -127 -37 -205l-416 -884q-18 -37 -54 -59t-78 -22t-77.5 22t-52.5 59l-417 884q-38 80 -38 205q0 159 78.5 293.5t213 213t293.5 78.5t293.5 -78.5t213 -213 t78.5 -293.5z" />
<glyph unicode="&#xf042;" d="M878 110v1243q-169 0 -312 -83.5t-226.5 -226.5t-83.5 -312t83.5 -312t226.5 -226t312 -83zM1755 731q0 -179 -69.5 -341.5t-186.5 -279.5t-279.5 -186.5t-341.5 -69.5t-341.5 69.5t-280 186.5t-187 279.5t-69.5 341.5t69.5 341.5t187 280t280 187t341.5 69.5 t341.5 -69.5t279.5 -187t186.5 -280t69.5 -341.5z" />
<glyph unicode="&#xf043;" horiz-adv-x="1170" d="M585 439q0 41 -23 79q-1 1 -18 25.5t-29 43.5t-28 50t-24 58q-4 18 -24 18t-24 -18q-8 -27 -24 -58t-28.5 -50t-29.5 -43t-18 -26q-22 -36 -22 -79q0 -61 42.5 -103.5t103.5 -42.5t103.5 42.5t42.5 103.5zM1170 585q0 -159 -78.5 -293.5t-213 -213t-293.5 -78.5 t-293.5 78.5t-213 213t-78.5 293.5q0 166 93 314q6 10 71 103.5t115.5 172.5t113.5 203t95 231q11 35 39 54t58 19t58.5 -19t38.5 -54q32 -107 95 -231t114 -203t116 -172.5t71 -103.5q92 -144 92 -314z" />
<glyph unicode="&#xf044;" horiz-adv-x="2048" d="M1015 402l132 133l-173 174l-133 -133v-64h110v-110h64zM1518 1225q-8 7 -19 7t-19 -8l-400 -400q-8 -8 -8 -19t7 -19q8 -7 19 -7t19 8l400 400q8 8 8 19t-7 19zM1609 546v-217q0 -137 -96.5 -233t-232.5 -96h-951q-137 0 -233 96t-96 233v951q0 136 96 232.5t233 96.5 h951q72 0 134 -28q17 -8 20 -27q3 -20 -10 -33l-56 -56q-17 -17 -37 -9q-24 7 -51 7h-951q-76 0 -129.5 -53.5t-53.5 -129.5v-951q0 -76 53.5 -129.5t129.5 -53.5h951q76 0 129.5 53.5t53.5 129.5v144q0 15 10 25l73 73q18 18 40 8q23 -10 23 -33zM1499 1390l330 -329 l-768 -768h-330v329zM2007 1239l-105 -105l-329 329l105 105q32 32 78 32t77 -32l174 -174q31 -32 31 -78t-31 -77z" />
<glyph unicode="&#xf045;" horiz-adv-x="1901" d="M1609 625v-296q0 -137 -96.5 -233t-232.5 -96h-951q-137 0 -233 96t-96 233v951q0 136 96 232.5t233 96.5h292v0q15 0 25.5 -10.5t10.5 -25.5q0 -13 -8.5 -24t-21.5 -13q-84 -28 -152 -69q-12 -4 -18 -4h-128q-76 0 -129.5 -53.5t-53.5 -129.5v-951q0 -76 53.5 -129.5 t129.5 -53.5h951q76 0 129.5 53.5t53.5 129.5v245q0 22 20 33q32 14 62 42q18 18 40 9q24 -10 24 -33zM1880 1192l-439 -439q-21 -22 -51 -22q-11 0 -29 6q-20 8 -32 27t-12 41v219h-183q-370 0 -501 -150q-70 -79 -90 -211t6 -329q3 -27 -23 -39q-10 -2 -14 -2 q-19 0 -30 14q-8 11 -23 34t-46.5 79.5t-56 113.5t-44 132t-19.5 139q0 73 7 133.5t29.5 130t59.5 124.5t101.5 107t151 86.5t212 55.5t280.5 21h183v219q0 22 12 41t32 27q15 5 29 5q30 0 51 -21l439 -439q22 -22 22 -51.5t-22 -51.5z" />
<glyph unicode="&#xf046;" horiz-adv-x="1901" d="M1609 693v-364q0 -137 -96.5 -233t-232.5 -96h-951q-137 0 -233 96t-96 233v951q0 136 96 232.5t233 96.5h951q72 0 134 -28q17 -8 20 -27q3 -20 -10 -33l-56 -56q-11 -11 -26 -11q-5 0 -11 2q-24 7 -51 7h-951q-76 0 -129.5 -53.5t-53.5 -129.5v-951q0 -76 53.5 -129.5 t129.5 -53.5h951q76 0 129.5 53.5t53.5 129.5v290q0 16 10 26l73 73q11 11 27 11q6 0 13 -3q23 -10 23 -33zM1873 1251l-930 -930q-28 -28 -65 -28t-65 28l-492 492q-28 28 -28 65t28 65l126 126q28 28 65 28t65 -28l301 -301l739 739q28 28 65 28t65 -28l126 -125 q28 -28 28 -65.5t-28 -65.5z" />
<glyph unicode="&#xf047;" horiz-adv-x="2048" d="M2048 731q0 -29 -22 -51l-292 -293q-21 -21 -52 -21q-30 0 -51.5 21.5t-21.5 51.5v146h-439v-439h147q30 0 51.5 -21.5t21.5 -51.5q0 -29 -22 -51l-293 -293q-22 -22 -51 -22t-51 22l-293 293q-22 22 -22 51q0 30 21.5 51.5t51.5 21.5h147v439h-439v-146 q0 -30 -21.5 -51.5t-51.5 -21.5q-31 0 -52 21l-292 293q-22 22 -22 51q0 30 22 52l292 292q22 22 52 22t51.5 -21.5t21.5 -51.5v-146h439v439h-147q-30 0 -51.5 21.5t-21.5 51.5q0 29 22 51l293 293q21 21 51 21t51 -21l293 -293q22 -22 22 -51q0 -30 -21.5 -51.5 t-51.5 -21.5h-147v-439h439v146q0 30 21.5 51.5t51.5 21.5t52 -22l292 -292q22 -22 22 -52z" />
<glyph unicode="&#xf048;" horiz-adv-x="1170" d="M1119 1594q22 22 36.5 15.5t14.5 -36.5v-1683q0 -30 -14.5 -36.5t-36.5 15.5l-812 811q-9 9 -14 22v-775q0 -30 -22 -51.5t-52 -21.5h-146q-30 0 -51.5 21.5t-21.5 51.5v1609q0 30 21.5 51.5t51.5 21.5h146q30 0 52 -21.5t22 -51.5v-775q5 13 14 22z" />
<glyph unicode="&#xf049;" horiz-adv-x="2048" d="M1997 1594q22 22 36.5 15.5t14.5 -36.5v-1683q0 -30 -14.5 -36.5t-36.5 15.5l-812 811q-11 11 -15 22v-812q0 -30 -14.5 -36.5t-36.5 15.5l-812 811q-9 9 -14 22v-775q0 -30 -22 -51.5t-52 -21.5h-146q-30 0 -51.5 21.5t-21.5 51.5v1609q0 30 21.5 51.5t51.5 21.5h146 q30 0 52 -21.5t22 -51.5v-775q5 13 14 22l812 811q22 22 36.5 15.5t14.5 -36.5v-812q4 11 15 22z" />
<glyph unicode="&#xf04a;" horiz-adv-x="1901" d="M1850 1594q22 22 37 15.5t15 -36.5v-1683q0 -30 -15 -36.5t-37 15.5l-811 811q-11 11 -15 22v-812q0 -30 -14.5 -36.5t-36.5 15.5l-812 811q-22 22 -22 51.5t22 51.5l812 811q22 22 36.5 15.5t14.5 -36.5v-812q4 11 15 22z" />
<glyph unicode="&#xf04b;" horiz-adv-x="1609" d="M1582 696l-1518 -843q-26 -14 -45 -3.5t-19 40.5v1683q0 30 19 40.5t45 -3.5l1518 -843q26 -14 26 -35.5t-26 -35.5z" />
<glyph unicode="&#xf04c;" d="M1755 1536v-1609q0 -30 -21.5 -51.5t-51.5 -21.5h-585q-30 0 -51.5 21.5t-21.5 51.5v1609q0 30 21.5 51.5t51.5 21.5h585q30 0 51.5 -21.5t21.5 -51.5zM731 1536v-1609q0 -30 -21.5 -51.5t-51.5 -21.5h-585q-30 0 -51.5 21.5t-21.5 51.5v1609q0 30 21.5 51.5t51.5 21.5 h585q30 0 51.5 -21.5t21.5 -51.5z" />
<glyph unicode="&#xf04d;" d="M1755 1536v-1609q0 -30 -21.5 -51.5t-51.5 -21.5h-1609q-30 0 -51.5 21.5t-21.5 51.5v1609q0 30 21.5 51.5t51.5 21.5h1609q30 0 51.5 -21.5t21.5 -51.5z" />
<glyph unicode="&#xf04e;" horiz-adv-x="1901" d="M51 -131q-22 -22 -36.5 -15.5t-14.5 36.5v1683q0 30 14.5 36.5t36.5 -15.5l812 -811q11 -11 15 -22v812q0 30 14.5 36.5t36.5 -15.5l812 -811q22 -22 22 -51.5t-22 -51.5l-812 -811q-22 -22 -36.5 -15.5t-14.5 36.5v812q-4 -11 -15 -22z" />
<glyph unicode="&#xf050;" horiz-adv-x="2048" d="M51 -131q-22 -22 -36.5 -15.5t-14.5 36.5v1683q0 30 14.5 36.5t36.5 -15.5l812 -811q11 -11 15 -22v812q0 30 14.5 36.5t36.5 -15.5l812 -811q9 -9 14 -22v775q0 30 22 51.5t52 21.5h146q30 0 51.5 -21.5t21.5 -51.5v-1609q0 -30 -21.5 -51.5t-51.5 -21.5h-146 q-30 0 -52 21.5t-22 51.5v775q-5 -13 -14 -22l-812 -811q-22 -22 -36.5 -15.5t-14.5 36.5v812q-4 -11 -15 -22z" />
<glyph unicode="&#xf051;" horiz-adv-x="1170" d="M51 -131q-22 -22 -36.5 -15.5t-14.5 36.5v1683q0 30 14.5 36.5t36.5 -15.5l812 -811q11 -11 15 -22v775q0 30 21.5 51.5t51.5 21.5h146q30 0 51.5 -21.5t21.5 -51.5v-1609q0 -30 -21.5 -51.5t-51.5 -21.5h-146q-30 0 -51.5 21.5t-21.5 51.5v775q-4 -11 -15 -22z" />
<glyph unicode="&#xf052;" horiz-adv-x="1757" d="M16 637l811 811q22 22 51.5 22t51.5 -22l812 -811q22 -22 15 -37t-37 -15h-1682q-30 0 -37 15t15 37zM1683 0h-1609q-30 0 -51.5 21.5t-21.5 51.5v293q0 30 21.5 51.5t51.5 21.5h1609q30 0 52 -21.5t22 -51.5v-293q0 -30 -22 -51.5t-52 -21.5z" />
<glyph unicode="&#xf053;" horiz-adv-x="1316" d="M848 -42l-745 744q-42 42 -42 103t42 104l745 744q42 42 103 42t104 -42l86 -86q42 -43 42 -104t-42 -103l-556 -555l556 -555q42 -43 42 -104t-42 -103l-86 -85q-43 -43 -104 -43t-103 43z" />
<glyph unicode="&#xf054;" horiz-adv-x="1316" d="M1256 805q0 -60 -42 -104l-745 -744q-43 -43 -103 -43t-103 43l-87 85q-42 44 -42 104q0 61 42 103l555 556l-555 554q-42 44 -42 104q0 61 42 103l87 85q42 44 103 44t103 -44l745 -744q42 -42 42 -102z" />
<glyph unicode="&#xf055;" d="M1390 658v147q0 30 -21.5 51.5t-51.5 21.5h-293v292q0 30 -21.5 51.5t-51.5 21.5h-146q-30 0 -52 -21.5t-22 -51.5v-292h-292q-30 0 -51.5 -21.5t-21.5 -51.5v-147q0 -30 21.5 -51.5t51.5 -21.5h292v-292q0 -30 22 -52t52 -22h146q30 0 51.5 22t21.5 52v292h293 q30 0 51.5 21.5t21.5 51.5zM1755 731q0 -179 -69.5 -341.5t-186.5 -279.5t-279.5 -186.5t-341.5 -69.5t-341.5 69.5t-280 186.5t-187 279.5t-69.5 341.5t69.5 341.5t187 280t280 187t341.5 69.5t341.5 -69.5t279.5 -187t186.5 -280t69.5 -341.5z" />
<glyph unicode="&#xf056;" d="M1390 658v147q0 30 -21.5 51.5t-51.5 21.5h-878q-30 0 -51.5 -21.5t-21.5 -51.5v-147q0 -30 21.5 -51.5t51.5 -21.5h878q30 0 51.5 21.5t21.5 51.5zM1755 731q0 -179 -69.5 -341.5t-186.5 -279.5t-279.5 -186.5t-341.5 -69.5t-341.5 69.5t-280 186.5t-187 279.5 t-69.5 341.5t69.5 341.5t187 280t280 187t341.5 69.5t341.5 -69.5t279.5 -187t186.5 -280t69.5 -341.5z" />
<glyph unicode="&#xf057;" d="M1313 473q0 30 -22 52l-206 206l206 207q22 22 22 52t-22 52l-102 103q-22 22 -53 22q-29 0 -51 -22l-207 -207l-207 207q-22 22 -52 22t-52 -22l-103 -103q-22 -22 -22 -52t22 -52l207 -207l-207 -206q-22 -22 -22 -52t22 -52l103 -103q22 -22 52 -22t52 22l207 207 l207 -207q22 -22 51 -22q31 0 53 22l102 103q22 22 22 52zM1755 731q0 -179 -69.5 -341.5t-186.5 -279.5t-279.5 -186.5t-341.5 -69.5t-341.5 69.5t-280 186.5t-187 279.5t-69.5 341.5t69.5 341.5t187 280t280 187t341.5 69.5t341.5 -69.5t279.5 -187t186.5 -280 t69.5 -341.5z" />
<glyph unicode="&#xf058;" d="M1467 917q0 32 -20 52l-104 103q-22 22 -52 22q-29 0 -51 -22l-466 -465l-259 258q-22 22 -51 22t-51 -22l-104 -103q-21 -21 -21 -52t21 -52l413 -413q22 -22 52 -22t52 22l621 620q20 20 20 52zM1755 731q0 -179 -69.5 -341.5t-186.5 -279.5t-279.5 -186.5 t-341.5 -69.5t-341.5 69.5t-280 186.5t-187 279.5t-69.5 341.5t69.5 341.5t187 280t280 187t341.5 69.5t341.5 -69.5t279.5 -187t186.5 -280t69.5 -341.5z" />
<glyph unicode="&#xf059;" d="M1024 183v219q0 16 -10.5 26.5t-26.5 10.5h-219q-16 0 -26.5 -10.5t-10.5 -26.5v-219q0 -16 10.5 -26.5t26.5 -10.5h219q16 0 26.5 10.5t10.5 26.5zM1317 951q0 100 -63 186t-158.5 133t-194.5 47q-277 0 -424 -244q-7 -12 -4.5 -26t13.5 -22l151 -114q8 -7 21 -7 q18 0 29 14q61 78 98 105t98 27q55 0 98 -29.5t43 -67.5q0 -43 -23.5 -69.5t-77.5 -51.5q-72 -33 -132 -99.5t-60 -142.5v-41q0 -16 10.5 -26.5t26.5 -10.5h219q16 0 26.5 10.5t10.5 26.5q0 22 24.5 56.5t62.5 56.5q30 17 46 27t45 30.5t45.5 41t34.5 48.5t26.5 64t8.5 78z M1755 731q0 -179 -69.5 -341.5t-186.5 -279.5t-279.5 -186.5t-341.5 -69.5t-341.5 69.5t-280 186.5t-187 279.5t-69.5 341.5t69.5 341.5t187 280t280 187t341.5 69.5t341.5 -69.5t279.5 -187t186.5 -280t69.5 -341.5z" />
<glyph unicode="&#xf05a;" d="M1170 183v183q0 16 -10 26t-26 10h-110v585q0 16 -10.5 26.5t-26.5 10.5h-365q-16 0 -26.5 -10.5t-10.5 -26.5v-182q0 -16 10.5 -26.5t26.5 -10.5h109v-366h-109q-16 0 -26.5 -10t-10.5 -26v-183q0 -16 10.5 -26.5t26.5 -10.5h512q16 0 26 10.5t10 26.5zM1024 1207v183 q0 16 -10.5 26t-26.5 10h-219q-16 0 -26.5 -10t-10.5 -26v-183q0 -16 10.5 -26.5t26.5 -10.5h219q16 0 26.5 10.5t10.5 26.5zM1755 731q0 -179 -69.5 -341.5t-186.5 -279.5t-279.5 -186.5t-341.5 -69.5t-341.5 69.5t-280 186.5t-187 279.5t-69.5 341.5t69.5 341.5t187 280 t280 187t341.5 69.5t341.5 -69.5t279.5 -187t186.5 -280t69.5 -341.5z" />
<glyph unicode="&#xf05b;" d="M1368 585h-125q-30 0 -51.5 21.5t-21.5 51.5v147q0 30 21.5 51.5t51.5 21.5h125q-37 124 -128.5 215.5t-215.5 128.5v-125q0 -30 -21.5 -51.5t-51.5 -21.5h-146q-30 0 -52 21.5t-22 51.5v125q-124 -37 -215.5 -128.5t-128.5 -215.5h125q30 0 51.5 -21.5t21.5 -51.5v-147 q0 -30 -21.5 -51.5t-51.5 -21.5h-125q37 -124 128.5 -215.5t215.5 -128.5v125q0 30 22 51.5t52 21.5h146q30 0 51.5 -21.5t21.5 -51.5v-125q124 37 215.5 128.5t128.5 215.5zM1755 805v-147q0 -30 -21.5 -51.5t-51.5 -21.5h-163q-42 -185 -176.5 -319t-318.5 -176v-163 q0 -30 -21.5 -51.5t-51.5 -21.5h-146q-30 0 -52 21.5t-22 51.5v163q-184 42 -318 176t-176 319h-164q-30 0 -51.5 21.5t-21.5 51.5v147q0 30 21.5 51.5t51.5 21.5h164q42 185 176 319t318 176v163q0 30 22 51.5t52 21.5h146q30 0 51.5 -21.5t21.5 -51.5v-163 q185 -42 319 -176.5t176 -318.5h163q30 0 51.5 -21.5t21.5 -51.5z" />
<glyph unicode="&#xf05c;" d="M1254 522l-167 -167q-11 -11 -26.5 -11t-26.5 11l-156 157l-157 -157q-11 -11 -26 -11t-26 11l-167 167q-11 11 -11 26.5t11 26.5l156 156l-156 157q-11 11 -11 26.5t11 26.5l167 166q11 11 26 11t26 -11l157 -156l156 156q11 11 26.5 11t26.5 -11l167 -166 q11 -11 11 -26.5t-11 -26.5l-157 -157l157 -156q11 -11 11 -26.5t-11 -26.5zM1499 731q0 169 -83 312t-226 226.5t-312 83.5t-312 -83.5t-226.5 -226.5t-83.5 -312t83.5 -312t226.5 -226t312 -83q126 0 241 49t198.5 132.5t132.5 198.5t49 241zM1755 731 q0 -179 -69.5 -341.5t-186.5 -279.5t-279.5 -186.5t-341.5 -69.5t-341.5 69.5t-280 186.5t-187 279.5t-69.5 341.5t69.5 341.5t187 280t280 187t341.5 69.5t341.5 -69.5t279.5 -187t186.5 -280t69.5 -341.5z" />
<glyph unicode="&#xf05d;" d="M1338 826l-482 -482q-22 -22 -51.5 -22t-51.5 22l-336 336q-22 22 -22 51.5t22 51.5l117 116q22 22 51.5 22t51.5 -22l168 -168l314 315q22 22 51.5 22t51.5 -22l116 -117q22 -22 22 -51.5t-22 -51.5zM1499 731q0 169 -83 312t-226 226.5t-312 83.5t-312 -83.5 t-226.5 -226.5t-83.5 -312t83.5 -312t226.5 -226t312 -83q126 0 241 49t198.5 132.5t132.5 198.5t49 241zM1755 731q0 -179 -69.5 -341.5t-186.5 -279.5t-279.5 -186.5t-341.5 -69.5t-341.5 69.5t-280 186.5t-187 279.5t-69.5 341.5t69.5 341.5t187 280t280 187t341.5 69.5 t341.5 -69.5t279.5 -187t186.5 -280t69.5 -341.5z" />
<glyph unicode="&#xf05e;" d="M1499 735q0 185 -99 337l-862 -861q155 -101 340 -101q126 0 241 49.5t198.5 133t132.5 199.5t49 243zM358 393l863 862q-154 104 -343 104q-169 0 -312 -83.5t-226.5 -227.5t-83.5 -313q0 -186 102 -342zM1755 735q0 -120 -31.5 -234t-88 -211t-137.5 -178t-177 -138 t-210 -88.5t-233 -31.5q-143 0 -277 44.5t-242 126t-189 189.5t-125.5 242.5t-44.5 278.5q0 179 69.5 342t187 281t280 187.5t341.5 69.5t341.5 -69.5t279.5 -187.5t186.5 -281t69.5 -342z" />
<glyph unicode="&#xf060;" d="M1755 731v-146q0 -61 -36.5 -103.5t-96.5 -42.5h-805l335 -336q43 -41 43 -103t-43 -103l-86 -87q-42 -42 -103 -42q-60 0 -104 42l-744 745q-42 42 -42 103q0 60 42 104l744 743q44 44 104 44q59 0 103 -44l86 -84q43 -43 43 -104t-43 -104l-335 -335h805q60 0 96.5 -43 t36.5 -104z" />
<glyph unicode="&#xf061;" d="M1682 658q0 -62 -42 -104l-744 -744q-44 -42 -104 -42q-59 0 -103 42l-86 86q-43 43 -43 104t43 104l335 335h-804q-60 0 -97 42.5t-37 103.5v146q0 61 37 104t97 43h804l-335 336q-43 41 -43 103q0 61 43 102l86 86q44 44 103 44q60 0 104 -44l744 -744q42 -40 42 -103z " />
<glyph unicode="&#xf062;" horiz-adv-x="1901" d="M1841 646q0 -59 -42 -103l-86 -86q-43 -43 -104 -43q-62 0 -103 43l-336 335v-805q0 -60 -42.5 -96.5t-103.5 -36.5h-146q-61 0 -104 36.5t-43 96.5v805l-336 -335q-41 -43 -102 -43q-62 0 -103 43l-86 86q-43 43 -43 103q0 61 43 104l744 744q40 42 103 42q62 0 104 -42 l744 -744q42 -44 42 -104z" />
<glyph unicode="&#xf063;" horiz-adv-x="1901" d="M1841 805q0 -61 -42 -103l-744 -745q-45 -43 -104 -43q-60 0 -103 43l-744 745q-43 41 -43 103q0 61 43 104l85 85q45 43 104 43t102 -43l336 -336v805q0 60 43.5 103t103.5 43h146q60 0 103 -43t43 -103v-805l336 336q43 43 103 43q59 0 104 -43l86 -85q42 -44 42 -104z " />
<glyph unicode="&#xf064;" horiz-adv-x="2048" d="M2048 1024q0 -29 -22 -51l-585 -586q-21 -21 -51 -21t-51.5 21.5t-21.5 51.5v292h-256q-113 0 -201 -7t-175.5 -25t-152 -48.5t-121 -79t-91.5 -115t-55 -158.5t-20 -207q0 -62 5 -140q0 -8 3 -27.5t3 -29.5q0 -17 -10 -28.5t-27 -11.5q-18 0 -32 19q-10 14 -25 48.5 t-17 38.5q-145 326 -145 515q0 227 61 381q186 461 1000 461h256v292q0 30 21.5 51.5t51.5 21.5t51 -21l585 -586q22 -22 22 -51z" />
<glyph unicode="&#xf065;" d="M863 549q0 -15 -12 -27l-379 -379l165 -165q21 -21 21 -51t-21.5 -51.5t-51.5 -21.5h-512q-30 0 -51.5 21.5t-21.5 51.5v512q0 30 21.5 51.5t51.5 21.5t52 -22l164 -164l380 379q12 12 26 12t26 -12l130 -130q12 -12 12 -26zM1755 1536v-512q0 -30 -21.5 -51.5 t-51.5 -21.5q-29 0 -51 22l-165 164l-379 -379q-12 -12 -26 -12q-15 0 -27 12l-130 130q-11 11 -11 26q0 16 11 27l379 379l-164 165q-22 22 -22 51q0 30 21.5 51.5t51.5 21.5h512q30 0 51.5 -21.5t21.5 -51.5z" />
<glyph unicode="&#xf066;" d="M878 658v-512q0 -30 -21.5 -51.5t-51.5 -21.5t-52 22l-164 164l-380 -379q-11 -11 -26 -11t-26 11l-131 130q-11 11 -11 27q0 15 11 26l380 379l-165 165q-22 22 -22 51q0 30 22 51.5t52 21.5h512q30 0 51.5 -21.5t21.5 -51.5zM1741 1426q0 -14 -12 -26l-379 -379 l164 -165q22 -22 22 -51q0 -30 -21.5 -52t-51.5 -22h-512q-30 0 -51.5 22t-21.5 52v512q0 30 21.5 51.5t51.5 21.5q29 0 51 -22l165 -165l379 380q11 11 27 11q15 0 26 -11l130 -130q12 -12 12 -27z" />
<glyph unicode="&#xf067;" horiz-adv-x="1609" d="M1609 914v-219q0 -46 -32 -78t-78 -32h-475v-475q0 -46 -32 -78t-78 -32h-219q-46 0 -78 32t-32 78v475h-475q-46 0 -78 32t-32 78v219q0 46 32 78t78 32h475v475q0 46 32 78t78 32h219q46 0 78 -32t32 -78v-475h475q46 0 78 -32t32 -78z" />
<glyph unicode="&#xf068;" horiz-adv-x="1609" d="M1609 914v-219q0 -46 -32 -78t-78 -32h-1389q-46 0 -78 32t-32 78v219q0 46 32 78t78 32h1389q46 0 78 -32t32 -78z" />
<glyph unicode="&#xf069;" horiz-adv-x="1901" d="M1694 555q52 -30 67.5 -89t-14.5 -111l-73 -125q-30 -52 -89 -68t-111 14l-304 175v-351q0 -60 -43 -103t-103 -43h-146q-60 0 -103.5 43t-43.5 103v351l-304 -175q-52 -30 -111 -14t-89 68l-73 125q-30 52 -14 111t68 89l304 176l-304 176q-52 30 -68 89t14 111l73 126 q30 52 89 68t111 -14l304 -175v351q0 60 43.5 103t103.5 43h146q60 0 103 -43t43 -103v-351l304 175q52 30 111 14t89 -68l73 -126q30 -52 14.5 -111t-67.5 -89l-304 -176z" />
<glyph unicode="&#xf06a;" d="M878 1609q179 0 341.5 -69.5t279.5 -187t186.5 -280t69.5 -341.5t-69.5 -341.5t-186.5 -279.5t-279.5 -186.5t-341.5 -69.5t-341.5 69.5t-280 186.5t-187 279.5t-69.5 341.5t69.5 341.5t187 280t280 187t341.5 69.5zM1024 184v217q0 16 -10.5 27t-24.5 11h-220 q-16 0 -27 -11t-11 -27v-217q0 -16 11 -27t27 -11h220q14 0 24.5 11t10.5 27zM1022 577l20 710q0 13 -11 20q-12 10 -28 10h-251q-15 0 -27 -10q-12 -7 -12 -20l20 -710q0 -12 11 -20t27 -8h212q16 0 27 8t12 20z" />
<glyph unicode="&#xf06b;" d="M1061 206v64v535v219h-366v-219v-535v-64q0 -29 20.5 -44.5t52.5 -15.5h219q32 0 53 15.5t21 44.5zM539 1170h223l-144 184q-31 36 -79 36q-46 0 -77.5 -32t-31.5 -78t31.5 -78t77.5 -32zM1326 1280q0 46 -32 78t-78 32q-48 0 -79 -36l-143 -184h222q46 0 78 32t32 78z M1755 987v-365q0 -16 -10 -26.5t-26 -10.5h-110v-475q0 -46 -32 -78t-78 -32h-1243q-46 0 -78 32t-32 78v475h-109q-16 0 -26.5 10.5t-10.5 26.5v365q0 16 10.5 26.5t26.5 10.5h502q-107 0 -181.5 75t-74.5 181t74.5 181t181.5 75q121 0 192 -88l147 -189l146 189 q71 88 192 88q106 0 181 -75t75 -181t-75 -181t-181 -75h503q16 0 26 -10.5t10 -26.5z" />
<glyph unicode="&#xf06c;" horiz-adv-x="2048" d="M1463 951q0 30 -21.5 51.5t-51.5 21.5q-149 0 -277.5 -30t-241 -92t-209.5 -143t-201 -196q-22 -24 -22 -51q0 -30 21.5 -51.5t51.5 -21.5q27 0 51 22q31 27 84.5 80.5t77.5 75.5q157 141 307 201t358 60q30 0 51.5 21.5t21.5 51.5zM2048 1177q0 -108 -23 -220 q-100 -486 -619 -744q-245 -124 -501 -124q-167 0 -327 54q-18 6 -101 48t-109 42q-19 0 -45.5 -36.5t-51 -80t-60 -80t-68.5 -36.5q-49 0 -73 20t-52 68q-2 4 -6.5 12t-6.5 11.5t-3.5 10.5t-1.5 16q0 40 35.5 84t77.5 75t77.5 64.5t35.5 54.5q0 5 -15.5 43.5t-18.5 50.5 q-10 56 -10 119q0 132 49.5 251.5t135.5 210.5t194.5 159t233.5 109q63 21 166 29.5t205 10t204 6.5t187.5 27.5t129.5 64.5q12 11 34 33t33.5 32t31 23t41.5 18.5t50 5.5q45 0 80.5 -52.5t54 -128t27.5 -141.5t9 -110z" />
<glyph unicode="&#xf06d;" horiz-adv-x="1609" d="M1609 -183v-73q0 -14 -11 -25.5t-25 -11.5h-1536q-14 0 -25.5 11.5t-11.5 25.5v73q0 14 11.5 25.5t25.5 11.5h1536q14 0 25 -11.5t11 -25.5zM1317 1024q0 -89 -28 -164.5t-73.5 -129t-100 -100.5t-109 -88t-100 -82.5t-73.5 -93t-28 -110.5q0 -56 22.5 -126.5 t53.5 -129.5l-4 1l1 -1q-102 47 -182.5 94.5t-158.5 114t-129.5 140.5t-83 172t-31.5 210q0 89 28 164.5t73.5 129t100 100.5t109 88t100 82.5t73.5 93t28 110.5q0 104 -76 256l4 -1l-2 1q102 -47 182.5 -94.5t159 -114t130 -140.5t83 -172t31.5 -210z" />
<glyph unicode="&#xf06e;" horiz-adv-x="2048" d="M1902 658q-176 271 -436 404q70 -119 70 -257q0 -104 -40.5 -198.5t-109.5 -163.5t-163.5 -109.5t-198.5 -40.5t-198.5 40.5t-163.5 109.5t-109.5 163.5t-40.5 198.5q0 138 70 257q-260 -133 -436 -404q151 -234 381 -373t497 -139t497 139t381 373zM1079 1097 q0 23 -16.5 39t-38.5 16q-143 0 -245 -102t-102 -245q0 -23 16 -39t38 -16q23 0 39 16t16 39q0 97 70 167t168 70q22 0 38.5 16t16.5 39zM2048 658q0 -40 -23 -79q-159 -262 -429.5 -420.5t-571.5 -158.5t-571.5 158.5t-429.5 420.5q-23 39 -23 79t23 79q160 262 430 421 t571 159t571 -159t430 -421q23 -39 23 -79z" />
<glyph unicode="&#xf070;" horiz-adv-x="2048" d="M634 230l89 161q-99 72 -155 181.5t-56 232.5q0 138 70 257q-260 -133 -436 -404q91 -141 215.5 -251.5t272.5 -176.5zM1079 1097q0 23 -16.5 39t-38.5 16q-143 0 -245 -102t-102 -245q0 -23 16 -39t38 -16q23 0 39 16t16 39q0 98 70 167.5t168 69.5q22 0 38.5 16 t16.5 39zM1494 1315q0 -8 -1 -10q-121 -216 -361 -647.5t-361 -647.5l-56 -101q-12 -19 -32 -19q-16 0 -153 80q-18 11 -18 32q0 14 50 100q-164 75 -301.5 197.5t-237.5 279.5q-23 35 -23 79t23 79q175 269 434 424.5t567 155.5q103 0 206 -20l61 111q11 18 32 18 q15 0 152 -80q19 -12 19 -31zM1536 805q0 -160 -90 -291t-239 -187l320 574q9 -48 9 -96zM2048 658q0 -41 -23 -79q-47 -77 -124 -165q-171 -196 -397 -305t-480 -109l85 151q243 21 449 157t344 350q-133 205 -323 336l72 128q109 -73 208.5 -175t165.5 -210q23 -38 23 -79 z" />
<glyph unicode="&#xf071;" horiz-adv-x="2048" d="M1170 184v217q0 16 -10 27t-26 11h-220q-16 0 -26 -11t-10 -27v-217q0 -16 10 -27t26 -11h220q16 0 26 11t10 27zM1168 611l21 525q0 13 -12 22q-14 12 -27 12h-252q-13 0 -27 -12q-12 -9 -12 -24l20 -523q0 -11 11 -18.5t28 -7.5h211q16 0 27 7.5t12 18.5zM1152 1679 l878 -1609q39 -71 -3 -144q-19 -34 -53 -53t-72 -19h-1756q-38 0 -72 19t-53 53q-42 73 -3 144l878 1609q19 35 53 55.5t75 20.5t75 -20.5t53 -55.5z" />
<glyph unicode="&#xf072;" horiz-adv-x="1609" d="M1573 1573q50 -59 13.5 -169t-123.5 -197l-257 -257l183 -796q5 -22 -14 -37l-146 -110q-8 -7 -22 -7q-5 0 -8 1q-17 3 -24 18l-319 581l-223 -223l61 -222q5 -20 -9 -35l-110 -110q-10 -10 -26 -10h-3q-16 2 -27 15l-216 288l-288 216q-13 9 -15 26q-2 16 10 29l110 111 q10 10 26 10q7 0 9 -1l222 -61l223 223l-581 319q-16 9 -19 27q-2 19 10 31l147 146q17 15 34 10l760 -182l256 256q87 87 197 123.5t169 -13.5z" />
<glyph unicode="&#xf073;" horiz-adv-x="1901" d="M146 -146h329v329h-329v-329zM549 -146h365v329h-365v-329zM146 256h329v366h-329v-366zM549 256h365v366h-365v-366zM146 695h329v329h-329v-329zM987 -146h366v329h-366v-329zM549 695h365v329h-365v-329zM1426 -146h329v329h-329v-329zM987 256h366v366h-366v-366z M585 1243v330q0 14 -11 25t-25 11h-74q-14 0 -25 -11t-11 -25v-330q0 -14 11 -25t25 -11h74q14 0 25 11t11 25zM1426 256h329v366h-329v-366zM987 695h366v329h-366v-329zM1426 695h329v329h-329v-329zM1463 1243v330q0 14 -11.5 25t-25.5 11h-73q-14 0 -25 -11t-11 -25 v-330q0 -14 11 -25t25 -11h73q14 0 25.5 11t11.5 25zM1902 1317v-1463q0 -60 -43.5 -103.5t-103.5 -43.5h-1609q-60 0 -103 43.5t-43 103.5v1463q0 60 43 103t103 43h147v110q0 76 53 129t129 53h74q76 0 129 -53t53 -129v-110h439v110q0 76 53.5 129t129.5 53h73 q76 0 129.5 -53t53.5 -129v-110h146q60 0 103.5 -43t43.5 -103z" />
<glyph unicode="&#xf074;" horiz-adv-x="2048" d="M761 1206q-64 -98 -156 -312q-24 51 -41.5 83t-47 73t-58.5 64t-72 39.5t-93 16.5h-256q-16 0 -26.5 10.5t-10.5 26.5v219q0 16 10.5 26.5t26.5 10.5h256q286 0 468 -257zM2048 293q0 -17 -10 -27l-366 -365q-11 -11 -26 -11q-14 0 -25.5 11.5t-11.5 25.5v219 q-37 0 -108 -1q-68 -2 -131.5 -0.5t-119 7t-109 22t-102 44.5t-96.5 74t-94 111q66 103 156 312q24 -51 41.5 -83t47 -73t58.5 -64t72 -39.5t93 -16.5h292v219q0 16 10.5 26.5t26.5 10.5q13 0 27 -12l365 -364q10 -10 10 -26zM2048 1317q0 -17 -10 -27l-366 -365 q-11 -11 -26 -11t-26 11t-11 26v219h-292q-55 0 -99.5 -17t-78.5 -51.5t-58.5 -70t-51.5 -88.5q-44 -86 -90 -196q-33 -76 -56.5 -127t-61.5 -120t-73 -114.5t-85 -95t-102.5 -78t-121.5 -47.5t-146 -19h-256q-16 0 -26.5 10.5t-10.5 26.5v219q0 16 10.5 26.5t26.5 10.5h256 q55 0 99.5 17t78.5 51.5t58.5 70t51.5 88.5q39 76 89 196q33 76 57 127.5t62 120t72.5 114t84.5 95t103 78t122 47.5t146 19h292v219q0 16 10.5 26.5t26.5 10.5q13 0 27 -12l365 -364q10 -10 10 -26z" />
<glyph unicode="&#xf075;" horiz-adv-x="2048" d="M2048 731q0 -119 -51.5 -231t-146.5 -201.5t-220.5 -157t-282 -104.5t-323.5 -37q-85 0 -166 9q-226 -201 -525 -276q-63 -17 -131 -26q-19 -2 -35 11t-20 33v1q1 12 -0.5 16t4 13.5t7.5 12.5t10 12t10 12q7 8 35.5 39t39.5 44t35 45t37.5 58.5t30.5 67.5t30 87 q-180 103 -283 252t-103 320q0 148 81 283.5t218 234t327 156.5t398 58q278 0 514 -98t373 -266.5t137 -367.5z" />
<glyph unicode="&#xf076;" d="M1755 805v-147q0 -172 -66 -321.5t-181.5 -255.5t-278.5 -166.5t-351 -60.5t-351.5 60.5t-279 166.5t-181.5 255.5t-66 321.5v147q0 30 21.5 51.5t51.5 21.5h439q30 0 51.5 -21.5t21.5 -51.5v-147q0 -59 26.5 -102.5t61.5 -65t81.5 -34t73 -15t50.5 -2.5t50.5 2.5t73 15 t81 34t61 65t26.5 102.5v147q0 30 21.5 51.5t51.5 21.5h439q30 0 51.5 -21.5t21.5 -51.5zM585 1536v-439q0 -30 -21.5 -51.5t-51.5 -21.5h-439q-30 0 -51.5 21.5t-21.5 51.5v439q0 30 21.5 51.5t51.5 21.5h439q30 0 51.5 -21.5t21.5 -51.5zM1755 1536v-439 q0 -30 -21.5 -51.5t-51.5 -21.5h-439q-30 0 -51.5 21.5t-21.5 51.5v439q0 30 21.5 51.5t51.5 21.5h439q30 0 51.5 -21.5t21.5 -51.5z" />
<glyph unicode="&#xf077;" horiz-adv-x="1901" d="M1841 366q0 -61 -42 -103l-86 -86q-43 -43 -104 -43q-62 0 -103 43l-555 554l-556 -554q-41 -43 -102 -43q-62 0 -103 43l-86 86q-43 41 -43 103q0 61 43 104l744 744q42 42 103 42q60 0 104 -42l743 -744q43 -43 43 -104z" />
<glyph unicode="&#xf078;" horiz-adv-x="1901" d="M1841 951q0 -61 -42 -103l-744 -744q-43 -43 -104 -43q-62 0 -103 43l-744 744q-43 41 -43 103q0 61 43 104l85 86q44 42 104 42t102 -42l556 -556l555 556q42 42 103 42q60 0 104 -42l86 -86q42 -44 42 -104z" />
<glyph unicode="&#xf079;" horiz-adv-x="2194" d="M1463 37q0 -14 -11.5 -25.5t-25.5 -11.5h-1097q-9 0 -15.5 2t-10 7.5t-6 9.5t-3.5 13t-1 13.5v15v12.5v183v475h-220q-30 0 -51.5 22t-21.5 52q0 26 17 46l366 439q22 25 56 25t56 -25l366 -439q17 -20 17 -46q0 -30 -21.5 -52t-51.5 -22h-220v-438h658q18 0 29 -13 l183 -219q8 -11 8 -24zM2194 512q0 -27 -17 -47l-366 -439q-23 -26 -56 -26t-56 26l-365 439q-17 20 -17 47q0 30 21.5 51.5t51.5 21.5h219v439h-658q-18 0 -29 14l-183 219q-8 10 -8 23q0 14 11.5 25.5t25.5 11.5h1097q8 0 14 -2.5t9.5 -5t6.5 -8.5t4.5 -10t2 -12.5 t0.5 -11.5v-12.5v-11.5v-182v-476h219q30 0 51.5 -21.5t21.5 -51.5z" />
<glyph unicode="&#xf07a;" horiz-adv-x="1901" d="M731 0q0 -61 -42.5 -103.5t-103.5 -42.5t-103.5 42.5t-42.5 103.5t42.5 103.5t103.5 42.5t103.5 -42.5t42.5 -103.5zM1755 0q0 -61 -42.5 -103.5t-103.5 -42.5t-103.5 42.5t-42.5 103.5t42.5 103.5t103.5 42.5t103.5 -42.5t42.5 -103.5zM1902 1243v-585 q0 -28 -18.5 -48.5t-46.5 -24.5l-1194 -139q1 -7 5.5 -24t7 -30.5t2.5 -25.5q0 -9 -3 -19.5t-6 -17.5t-9.5 -19.5t-8.5 -16.5h1051q30 0 51.5 -22t21.5 -52t-21.5 -51.5t-51.5 -21.5h-1170q-30 0 -51.5 21.5t-21.5 51.5q0 16 12.5 45t34 68.5t23.5 43.5l-203 941h-233 q-30 0 -51.5 21.5t-21.5 51.5t21.5 51.5t51.5 21.5h293q19 0 33 -7.5t22.5 -17.5t15 -28t8.5 -30t5.5 -33.5t5.5 -29.5h1373q30 0 51.5 -22t21.5 -52z" />
<glyph unicode="&#xf07b;" horiz-adv-x="1901" d="M1902 1061v-805q0 -106 -75 -181t-181 -75h-1390q-106 0 -181 75t-75 181v1097q0 106 75 181t181 75h366q106 0 181 -75t75 -181v-36h768q106 0 181 -75t75 -181z" />
<glyph unicode="&#xf07c;" horiz-adv-x="2194" d="M2147 667q0 -34 -35 -75l-384 -453q-49 -58 -137.5 -98.5t-164.5 -40.5h-1243q-39 0 -69.5 15t-30.5 49q0 33 36 75l384 453q49 58 137.5 98.5t164.5 40.5h1243q39 0 69 -15t30 -49zM1755 1061v-183h-950q-108 0 -225.5 -54.5t-187.5 -136.5l-385 -453l-6 -7q0 5 -0.5 15 t-0.5 14v1097q0 106 75 181t181 75h366q106 0 181 -75t75 -181v-36h621q106 0 181 -75t75 -181z" />
<glyph unicode="&#xf07d;" horiz-adv-x="877" d="M805 1390q0 -30 -22 -51.5t-52 -21.5h-146v-1171h146q30 0 52 -21.5t22 -51.5q0 -29 -22 -51l-293 -293q-22 -22 -51 -22q-30 0 -52 22l-292 293q-22 22 -22 51q0 30 21.5 51.5t51.5 21.5h147v1171h-147q-30 0 -51.5 21.5t-21.5 51.5q0 29 22 51l292 293q21 21 52 21 q30 0 51 -21l293 -293q22 -22 22 -51z" />
<glyph unicode="&#xf07e;" horiz-adv-x="2048" d="M2048 731q0 -29 -22 -51l-292 -293q-21 -21 -52 -21q-30 0 -51.5 21.5t-21.5 51.5v146h-1170v-146q0 -30 -21.5 -51.5t-51.5 -21.5q-31 0 -52 21l-292 293q-22 22 -22 51q0 30 22 52l292 292q22 22 52 22t51.5 -21.5t21.5 -51.5v-146h1170v146q0 30 21.5 51.5t51.5 21.5 t52 -22l292 -292q22 -22 22 -52z" />
<glyph unicode="&#xf080;" horiz-adv-x="2194" d="M585 585v-439h-292v439h292zM1024 1170v-1024h-293v1024h293zM1463 878v-732h-293v732h293zM1902 1317v-1171h-293v1171h293zM2048 37v1389q0 14 -11.5 25.5t-25.5 11.5h-1828q-14 0 -25.5 -11.5t-11.5 -25.5v-1389q0 -14 11.5 -25.5t25.5 -11.5h1828q14 0 25.5 11.5 t11.5 25.5zM2194 1426v-1389q0 -76 -53.5 -129.5t-129.5 -53.5h-1828q-76 0 -129.5 53.5t-53.5 129.5v1389q0 76 53.5 129.5t129.5 53.5h1828q76 0 129.5 -53.5t53.5 -129.5z" />
<glyph unicode="&#xf081;" d="M1463 1058q-65 -28 -138 -39q78 47 106 134q-77 -44 -153 -58q-69 75 -175 75q-100 0 -170 -70t-70 -170q0 -35 6 -55q-148 7 -276.5 74t-219.5 178q-34 -57 -34 -121q0 -62 27.5 -115t76.5 -85q-54 1 -114 29v-2q0 -86 57 -152t141 -83q-32 -9 -58 -9q-15 0 -45 4 q24 -72 85 -119t139 -48q-132 -103 -298 -103q-21 0 -57 4q171 -108 368 -108q128 0 240 40.5t191.5 108.5t137.5 156.5t86 185.5t28 193q0 21 -1 31q72 51 120 124zM1755 1280v-1097q0 -137 -96.5 -233t-232.5 -96h-1097q-137 0 -233 96t-96 233v1097q0 136 96 232.5 t233 96.5h1097q136 0 232.5 -96.5t96.5 -232.5z" />
<glyph unicode="&#xf082;" d="M1494 706l26 251h-226v124q0 56 17.5 78.5t81.5 22.5h126v250h-200q-174 0 -249.5 -82.5t-75.5 -243.5v-149h-149v-251h149v-725h300v725h200zM1755 1280v-1097q0 -137 -96.5 -233t-232.5 -96h-1097q-137 0 -233 96t-96 233v1097q0 136 96 232.5t233 96.5h1097 q136 0 232.5 -96.5t96.5 -232.5z" />
<glyph unicode="&#xf083;" horiz-adv-x="2048" d="M1061 805q0 16 -10.5 26t-26.5 10q-76 0 -129.5 -53.5t-53.5 -129.5q0 -16 10.5 -26t26.5 -10t26 10t10 26q0 46 32 78t78 32q16 0 26.5 10.5t10.5 26.5zM1317 656q0 -121 -86 -207t-207 -86t-207 86t-86 207t86 207t207 86t207 -86t86 -207zM146 0h1756v146h-1756v-146z M1463 656q0 119 -59 220t-160 160t-220 59t-220 -59t-160 -160t-59 -220t59 -220t160 -160t220 -59t220 59t160 160t59 220zM293 1390h438v146h-438v-146zM146 1170h1756v135v158h-947l-73 -146h-736v-147zM2048 1463v-1463q0 -61 -42.5 -103.5t-103.5 -42.5h-1756 q-61 0 -103.5 42.5t-42.5 103.5v1463q0 61 42.5 103.5t103.5 42.5h1756q61 0 103.5 -42.5t42.5 -103.5z" />
<glyph unicode="&#xf084;" horiz-adv-x="2048" d="M951 1170q0 91 -64.5 155.5t-155.5 64.5t-155 -64.5t-64 -155.5q0 -48 22 -95q-47 22 -95 22q-91 0 -155.5 -64t-64.5 -155t64.5 -155.5t155.5 -64.5t155 64.5t64 155.5q0 50 -21 95q47 -22 94 -22q91 0 155.5 64t64.5 155zM1923 366q0 -20 -56 -76t-75 -56 q-10 0 -32.5 18t-42 38t-43.5 46t-28 30l-110 -110l251 -251q32 -32 32 -78q0 -48 -44.5 -92.5t-92.5 -44.5q-45 0 -77 32l-767 767q-202 -150 -417 -150q-187 0 -304 117t-117 303q0 137 65 274.5t169 241.5t241.5 169t274.5 65q186 0 303 -116.5t117 -303.5 q0 -217 -149 -418l405 -405l110 109q-3 3 -29.5 28t-46 44t-37.5 42t-18 33q0 20 55.5 75.5t75.5 55.5q15 0 26 -11q7 -7 52.5 -51t93.5 -91t99 -98.5t83.5 -89t32.5 -46.5z" />
<glyph unicode="&#xf085;" horiz-adv-x="2194" d="M1024 731q0 121 -86 207t-207 86t-206.5 -86t-85.5 -207t85.5 -206.5t206.5 -85.5t207 85.5t86 206.5zM1902 146q0 60 -43.5 103.5t-103.5 43.5t-103 -43.5t-43 -103.5q0 -61 43 -103.5t103 -42.5q61 0 104 43t43 103zM1902 1317q0 60 -43.5 103t-103.5 43t-103 -43 t-43 -103q0 -61 43 -104t103 -43q61 0 104 43.5t43 103.5zM1463 835v-211q0 -12 -7.5 -22.5t-18.5 -11.5l-178 -28q-12 -41 -36 -87q41 -59 103 -131q8 -11 8 -23q0 -14 -8 -22q-26 -35 -94 -102.5t-90 -67.5q-13 0 -24 8l-132 103q-42 -22 -88 -35q-14 -132 -26 -178 q-8 -27 -34 -27h-213q-12 0 -22.5 8.5t-11.5 20.5l-26 174q-39 12 -86 36l-135 -102q-8 -8 -23 -8q-13 0 -24 9q-164 148 -164 183q0 11 8 22q4 5 42 54t58 76q-27 52 -40 94l-174 27q-12 1 -19.5 11t-7.5 22v212q0 12 7.5 22.5t18.5 11.5l177 28q10 34 37 86 q-45 64 -103 132q-8 11 -8 23q0 14 8 23q26 34 94 101.5t90 67.5q13 0 24 -8l132 -103q39 20 88 36q14 130 26 176q9 28 34 28h213q12 0 22.5 -8.5t11.5 -20.5l26 -175q44 -13 86 -35l135 102q9 8 23 8t24 -9q26 -24 57.5 -54t69 -72.5t37.5 -56.5q0 -11 -8 -22 q-15 -20 -48.5 -63t-50.5 -67q27 -56 39 -94l173 -26q12 -2 20 -12.5t8 -22.5zM2194 226v-160q0 -11 -63.5 -21t-106.5 -14q-14 -34 -34 -60q58 -133 58 -157q0 -5 -5 -8q-2 -1 -39 -23t-68 -40t-34 -18q-10 0 -54 54.5t-58 76.5q-22 -2 -35 -2q-12 0 -34 2 q-14 -22 -58 -76.5t-54 -54.5q-3 0 -34 17.5t-69 40.5t-39 23q-4 3 -4 8q0 24 58 157q-20 26 -34 60q-43 4 -106.5 14t-63.5 21v160q0 11 64.5 21.5t105.5 14.5q15 34 34 59q-58 133 -58 158q0 5 4 8q5 3 40 23t67 38.5t35 18.5q10 0 54 -54t58 -76q22 2 34 2q13 0 35 -2 q57 80 105 128l7 2q1 0 141 -80q5 -3 5 -8q0 -25 -58 -158q19 -25 34 -59q41 -4 105.5 -14.5t64.5 -21.5zM2194 1397v-160q0 -11 -64.5 -21.5t-105.5 -14.5q-13 -32 -34 -59q58 -133 58 -158q0 -5 -5 -8q-2 -1 -39 -23t-68 -40t-34 -18q-10 0 -54 54.5t-58 76.5 q-22 -2 -35 -2q-12 0 -34 2q-14 -22 -58 -76.5t-54 -54.5q-3 0 -34 17.5t-69 40.5t-39 23q-4 3 -4 8q0 25 58 158q-21 27 -34 59q-41 4 -105.5 14.5t-64.5 21.5v160q0 11 63.5 21t106.5 14q15 34 34 59q-58 133 -58 158q0 5 4 8q5 3 40 23t67 38.5t35 18.5q10 0 54 -54 t58 -76q22 2 34 2q13 0 35 -2q57 80 105 128l7 2q1 0 141 -80q5 -3 5 -8q0 -25 -58 -158q19 -25 34 -59q43 -4 106.5 -14t63.5 -21z" />
<glyph unicode="&#xf086;" horiz-adv-x="2048" d="M1609 878q0 -159 -107.5 -293.5t-292.5 -213t-404 -78.5q-97 0 -202 18q-142 -100 -317 -146q-40 -10 -99 -19h-3q-13 0 -24 9.5t-13 23.5q-1 4 -1 8t0.5 7t2.5 7l3 6t4 6t4 5.5t5 6t5 5.5q5 6 26.5 28.5t30 33.5t25 32.5t29 44.5t23.5 50q-141 82 -222.5 202.5 t-81.5 256.5q0 159 107.5 293.5t293 213t404.5 78.5t404 -78.5t292.5 -213t107.5 -293.5zM2048 585q0 -137 -81 -256.5t-223 -201.5q11 -27 23 -50t29.5 -45.5t25 -32t30.5 -34t26 -28.5q1 -2 5.5 -6.5t5.5 -6t5 -6.5t4 -7t2.5 -7t1.5 -8t-1 -9q-4 -16 -15 -25.5t-25 -7.5 q-68 10 -99 18q-175 46 -317 146q-105 -18 -202 -18q-309 0 -539 151q83 -5 101 -5q184 0 352.5 51.5t301.5 147.5q143 104 219.5 241.5t76.5 291.5q0 87 -26 173q148 -81 233.5 -203t85.5 -263z" />
<glyph unicode="&#xf087;" d="M293 219q0 30 -22 52t-52 22t-51.5 -22t-21.5 -52t21.5 -51.5t51.5 -21.5t52 21.5t22 51.5zM1609 878q0 58 -44 102t-102 44h-402q0 56 27.5 119.5t54.5 127t27 119.5q0 112 -36.5 165.5t-146.5 53.5q-24 -24 -38 -72t-20.5 -94.5t-28.5 -103.5t-59 -96q-13 -13 -88 -104 q-3 -4 -26 -34.5t-36.5 -47t-39.5 -48t-46 -50.5t-44 -40t-45.5 -31t-40.5 -10h-36v-732h36q15 0 36 -3.5t37.5 -7.5t44 -13t39 -12.5t41.5 -14.5t33 -12q243 -83 391 -83h138q220 0 220 191q0 22 -6 64q34 19 54 60.5t20 83.5q0 45 -20 79q60 57 60 136q0 29 -11.5 63 t-28.5 54q36 1 61 54t25 93zM1755 879q0 -103 -56 -186q11 -39 11 -79q0 -89 -44 -165q4 -32 4 -49q0 -116 -69 -203q1 -159 -97 -251t-259 -92h-42h-106q-110 0 -218 26t-246 74q-4 1 -33 11t-47.5 16.5t-42.5 12.5t-35 6h-329q-61 0 -103.5 42.5t-42.5 103.5v732 q0 61 42.5 103.5t103.5 42.5h313q47 31 157 177q67 86 122 146q22 24 36 72.5t20.5 96t29 103.5t61.5 94q44 42 102 42q96 0 173 -37t117 -116q40 -80 40 -212q0 -105 -55 -220h201q119 0 205.5 -86.5t86.5 -204.5z" />
<glyph unicode="&#xf088;" d="M293 1243q0 30 -22 52t-52 22t-51.5 -22t-21.5 -52t21.5 -51.5t51.5 -21.5t52 21.5t22 51.5zM1609 585q0 40 -25 92.5t-61 53.5q17 20 28.5 54.5t11.5 63.5q0 79 -60 136q20 34 20 79q0 42 -20 83.5t-54 60.5q6 42 6 64q0 97 -56.5 144t-155.5 47h-146 q-91 0 -181.5 -21.5t-209.5 -62.5q-175 -62 -231 -62h-36v-732h36q19 0 40.5 -10t45.5 -31t44.5 -40.5t46 -50.5t39.5 -48.5t36 -47t26 -34.5q75 -91 88 -104q37 -39 59 -95.5t28.5 -103t20.5 -94.5t38 -72q110 0 146.5 53.5t36.5 165.5q0 56 -27 119.5t-54.5 127 t-27.5 119.5h402q58 0 102 44t44 102zM1755 584q0 -118 -86.5 -204.5t-205.5 -86.5h-201q55 -115 55 -220q0 -133 -40 -212t-117 -116.5t-173 -37.5q-57 0 -102 43q-39 38 -61.5 94t-29.5 103.5t-20.5 96.5t-35.5 73q-54 57 -122 145q-110 146 -157 177h-313 q-61 0 -103.5 42.5t-42.5 103.5v732q0 61 42.5 103.5t103.5 42.5h329q11 0 35 6t42.5 12.5t47.5 16.5t33 11q146 50 254.5 75t229.5 25h128q159 0 258 -90t98 -247v-6q69 -87 69 -203q0 -17 -4 -49q44 -76 44 -165q0 -40 -11 -79q56 -83 56 -186z" />
<glyph unicode="&#xf089;" horiz-adv-x="1024" d="M951 1719v-1530l-513 -270q-26 -14 -46 -14q-23 0 -35.5 16.5t-12.5 40.5q0 7 2 23l99 572l-416 404q-29 31 -29 55q0 42 64 53l574 83l257 520q21 47 56 47z" />
<glyph unicode="&#xf08a;" horiz-adv-x="2048" d="M1902 1074q0 93 -24.5 163.5t-63 112.5t-93 68t-107 35.5t-112.5 9.5t-128 -29t-126 -73t-99.5 -82.5t-68.5 -70.5q-20 -25 -56 -25t-56 25q-27 32 -68.5 70.5t-99.5 82.5t-126 73t-128 29t-112.5 -9.5t-107 -35.5t-93 -68t-63 -112.5t-24.5 -163.5q0 -191 214 -405 l664 -640l663 638q215 215 215 407zM2048 1074q0 -252 -262 -514l-712 -686q-20 -20 -50 -20t-50 20l-713 688q-12 10 -31.5 30t-63.5 74.5t-78 111.5t-61 138t-27 158q0 251 145 393t401 142q71 0 144.5 -25t137.5 -66.5t109.5 -78.5t86.5 -77q41 40 86.5 77t109.5 78.5 t137.5 66.5t144.5 25q256 0 401 -142t145 -393z" />
<glyph unicode="&#xf08b;" horiz-adv-x="1901" d="M731 110q0 -5 1 -23t0.5 -30t-3 -27t-11.5 -22.5t-23 -7.5h-366q-137 0 -233 96t-96 233v805q0 136 96 232.5t233 96.5h366q14 0 25 -11.5t11 -25.5q0 -5 1 -23t0.5 -30t-3 -26.5t-11.5 -22t-23 -7.5h-366q-76 0 -129.5 -53.5t-53.5 -129.5v-805q0 -76 53.5 -129.5 t129.5 -53.5h329h12.5h15t13.5 -1t13 -3.5t9.5 -6t7.5 -10t2 -15.5zM1792 731q0 -29 -22 -51l-621 -622q-21 -21 -52 -21q-30 0 -51.5 21.5t-21.5 51.5v329h-512q-30 0 -51.5 21.5t-21.5 51.5v439q0 30 21.5 51.5t51.5 21.5h512v329q0 30 21.5 51.5t51.5 21.5q31 0 52 -21 l621 -622q22 -22 22 -52z" />
<glyph unicode="&#xf08c;" d="M271 139h264v794h-264v-794zM552 1177q-1 60 -41 98.5t-106 38.5q-67 0 -108.5 -39t-41.5 -98q0 -58 40.5 -97.5t105.5 -39.5h1q68 0 109 39.5t41 97.5zM1221 139h264v455q0 175 -83.5 266t-220.5 91q-156 0 -239 -134h2v116h-264q3 -76 0 -794h264v444q0 45 8 64 q16 40 50.5 68t85.5 28q133 0 133 -180v-424zM1755 1280v-1097q0 -137 -96.5 -233t-232.5 -96h-1097q-137 0 -233 96t-96 233v1097q0 136 96 232.5t233 96.5h1097q136 0 232.5 -96.5t96.5 -232.5z" />
<glyph unicode="&#xf08d;" horiz-adv-x="1316" d="M549 768v512q0 16 -10.5 26.5t-26.5 10.5t-26.5 -10.5t-10.5 -26.5v-512q0 -16 10.5 -26.5t26.5 -10.5t26.5 10.5t10.5 26.5zM1317 366q0 -30 -22 -51.5t-52 -21.5h-490l-58 -552q-2 -14 -12.5 -24t-23.5 -10h-1q-13 0 -23.5 8.5t-12.5 22.5l-87 555h-462 q-30 0 -51.5 21.5t-21.5 51.5q0 140 90 252.5t203 112.5v586q-60 0 -103.5 43t-43.5 103t43.5 103t103.5 43h731q60 0 103 -43t43 -103t-43 -103t-103 -43v-586q113 0 203 -112.5t90 -252.5z" />
<glyph unicode="&#xf08e;" horiz-adv-x="2048" d="M1609 695v-366q0 -137 -96.5 -233t-232.5 -96h-951q-137 0 -233 96t-96 233v951q0 136 96 232.5t233 96.5h805q16 0 26 -10t10 -26v-74q0 -16 -10 -26t-26 -10h-805q-76 0 -129.5 -53.5t-53.5 -129.5v-951q0 -76 53.5 -129.5t129.5 -53.5h951q76 0 129.5 53.5t53.5 129.5 v366q0 16 10 26t26 10h74q16 0 26 -10t10 -26zM2048 1682v-585q0 -30 -21.5 -51.5t-51.5 -21.5t-52 22l-201 201l-745 -745q-12 -12 -26 -12t-26 12l-131 130q-11 11 -11 26q0 16 11 27l745 745l-201 201q-21 21 -21 51t21.5 51.5t51.5 21.5h585q30 0 51.5 -21.5t21.5 -51.5 z" />
<glyph unicode="&#xf090;" d="M1353 731q0 -29 -22 -51l-621 -622q-21 -21 -52 -21q-30 0 -51.5 21.5t-21.5 51.5v329h-512q-30 0 -51.5 21.5t-21.5 51.5v439q0 30 21.5 51.5t51.5 21.5h512v329q0 30 21.5 51.5t51.5 21.5q31 0 52 -21l621 -622q22 -22 22 -52zM1755 1134v-805q0 -137 -96.5 -233 t-232.5 -96h-365q-14 0 -25.5 11.5t-11.5 25.5q0 4 -1 23t-0.5 30t3.5 26t12 22.5t23 7.5h365q76 0 129.5 53.5t53.5 129.5v805q0 76 -53.5 129.5t-129.5 53.5h-329h-12.5h-15t-13.5 1t-13 3.5t-9.5 6t-7.5 10t-2 15.5q0 4 -1 23t-0.5 30.5t3.5 26.5t12 22.5t23 7.5h365 q136 0 232.5 -96.5t96.5 -232.5z" />
<glyph unicode="&#xf091;" horiz-adv-x="1901" d="M523 746q-84 184 -84 424h-293v-109q0 -89 108 -185t269 -130zM1755 1061v109h-292q0 -238 -85 -424q161 34 269 130t108 185zM1902 1207v-146q0 -81 -47.5 -163.5t-128 -149t-197.5 -111.5t-247 -51q-52 -65 -108 -108q-43 -39 -60 -82.5t-17 -102.5q0 -62 35 -104.5 t111 -42.5q86 0 153 -52t67 -131v-73q0 -16 -10.5 -26t-26.5 -10h-951q-16 0 -26 10t-10 26v73q0 79 66.5 131t152.5 52q76 0 111.5 42.5t35.5 104.5q0 59 -17 102.5t-60 82.5q-59 45 -109 108q-130 6 -247 51t-197.5 111.5t-127.5 149t-47 163.5v146q0 46 32 78t78 32h329 v109q0 76 53.5 129.5t129.5 53.5h658q76 0 129.5 -53.5t53.5 -129.5v-109h329q46 0 78 -32t32 -78z" />
<glyph unicode="&#xf092;" d="M450 210q-9 -10 -23 4q-14 12 -4 21q9 11 23 -3q13 -13 4 -22zM402 280q10 -14 0 -22q-9 -5 -19 8q-11 15 0 21q10 8 19 -7zM333 349q-5 -8 -15 -3q-12 5 -8 14q4 5 15 2q11 -5 8 -13zM368 310q-8 -8 -18 3q-11 13 -3 18q8 8 19 -3q11 -13 2 -18zM515 182q-4 -13 -21 -7 q-7 1 -12 6.5t-3 10.5q3 12 22 8q18 -5 14 -18zM587 176q0 -13 -18 -13q-19 -2 -19 13q0 13 18 13q8 1 13.5 -3t5.5 -10zM654 187q2 -12 -16 -16q-7 -1 -13.5 2t-7.5 8q-2 13 16 17q19 2 21 -11zM1755 1280v-1097q0 -137 -96.5 -233t-232.5 -96h-256q-15 0 -22.5 0.5t-19 3 t-17.5 8t-10.5 16.5t-4.5 27v273q0 112 -59 162q54 6 98 16.5t92 30t84 52t66 77t45.5 110t15.5 147.5q0 137 -91 236q41 106 -9 233q-32 10 -92.5 -12.5t-104.5 -50.5l-44 -28q-111 30 -219 30q-109 0 -220 -30q-7 5 -18.5 12.5t-44.5 26t-62 31t-62.5 20t-54.5 1.5 q-49 -127 -8 -233q-90 -98 -90 -236q0 -97 23.5 -171.5t60.5 -120t92 -76t107 -44.5t117 -21q-45 -42 -56 -118q-24 -11 -51 -17t-65 -6t-75 24.5t-64 71.5q-21 37 -55 59.5t-57 27.5l-23 4q-24 0 -33.5 -5.5t-6 -13.5t11 -16t14.5 -13l8 -6q25 -12 49.5 -44t36.5 -58 l11 -26q14 -44 50 -71t76.5 -34t79.5 -7.5t65 4.5l25 4q0 -43 1 -117t1 -78q0 -20 -6 -32t-19 -16.5t-22.5 -5.5t-28.5 -1h-256q-137 0 -233 96t-96 233v1097q0 136 96 232.5t233 96.5h1097q136 0 232.5 -96.5t96.5 -232.5z" />
<glyph unicode="&#xf093;" horiz-adv-x="1901" d="M1463 73q0 30 -21.5 51.5t-51.5 21.5t-51.5 -21.5t-21.5 -51.5t21.5 -51.5t51.5 -21.5t51.5 21.5t21.5 51.5zM1755 73q0 30 -21.5 51.5t-51.5 21.5t-51.5 -21.5t-21.5 -51.5t21.5 -51.5t51.5 -21.5t51.5 21.5t21.5 51.5zM1902 329v-366q0 -46 -32 -77.5t-78 -31.5h-1682 q-46 0 -78 31.5t-32 77.5v366q0 46 32 78t78 32h488q24 -65 80.5 -105.5t126.5 -40.5h292q70 0 126.5 40.5t80.5 105.5h488q46 0 78 -32t32 -78zM1530 1070q-19 -46 -67 -46h-293v-512q0 -30 -21.5 -51.5t-51.5 -21.5h-292q-30 0 -52 21.5t-22 51.5v512h-292q-22 0 -41 13 t-27 33q-19 45 16 79l512 512q20 21 52 21q31 0 51 -21l512 -512q35 -34 16 -79z" />
<glyph unicode="&#xf094;" d="M1608 811q0 49 -8.5 129t-20.5 111q-19 48 -26.5 76.5t-7.5 71.5q0 27 6 78.5t6 76.5q0 41 -12 63q-5 1 -15 1q-22 0 -66 -5t-67 -5q-68 0 -201 27.5t-201 27.5q-49 0 -107.5 -13t-97 -27t-102.5 -39q-156 -62 -231 -118q-83 -63 -145.5 -154t-97.5 -194.5t-51.5 -208.5 t-16.5 -213q0 -46 14.5 -137t14.5 -138q0 -27 -12.5 -76.5t-12.5 -74.5t13.5 -42t38.5 -17q28 0 83 13t84 13q65 0 194 -18t194 -18q206 0 324 41q147 52 269 174.5t190 280.5t68 314zM1754 814q0 -189 -80 -375t-224 -329t-321 -206q-141 -50 -372 -50q-65 0 -194.5 16.5 t-193.5 16.5q-27 0 -82.5 -16.5t-84.5 -16.5q-83 0 -141 63t-58 147q0 27 13 77.5t13 76.5q0 46 -14.5 138t-14.5 139q0 172 34.5 329.5t120 309t214.5 249.5q92 70 265 137q107 43 191 66t170 23q68 0 200 -27.5t199 -27.5q21 0 65 6t67 6q92 0 134.5 -57.5t42.5 -154.5 q0 -26 -6 -78t-6 -77q0 -12 1 -21.5t3.5 -19.5t4.5 -15.5t7.5 -18.5t7.5 -19q18 -45 28.5 -135.5t10.5 -155.5z" />
<glyph unicode="&#xf095;" horiz-adv-x="1609" d="M1609 338q0 -30 -11 -80t-24 -79q-11 -26 -38 -51t-46 -37t-56 -33q-105 -58 -212 -58q-30 0 -60 4t-65.5 14.5t-55.5 17t-63 22.5t-56 21q-110 39 -200 95q-145 90 -301.5 246.5t-246.5 301.5q-56 90 -95 200q-5 13 -21 56t-22.5 63t-17 55.5t-14.5 65.5t-4 60 q0 107 58 212q21 37 33 56t37 46t51 38q29 13 79 24t80 11q16 0 24 -3q23 -8 61 -87q12 -22 50 -90.5t60 -105.5q4 -6 20 -29t24 -39.5t8 -32.5q0 -23 -32.5 -57t-71 -62.5t-71 -60.5t-32.5 -53q0 -9 3 -19t9 -22l10 -20t12.5 -21t10.5 -17q86 -156 198.5 -268.5 t268.5 -198.5q4 -2 17 -10.5t21 -12.5l20 -10t22 -9t19 -3q21 0 53 32.5t60.5 71t62.5 71t57 32.5q16 0 32.5 -8t39.5 -24t29 -20q37 -22 105.5 -60t90.5 -50q79 -38 87 -61q3 -8 3 -24z" />
<glyph unicode="&#xf096;" horiz-adv-x="1609" d="M1280 1463h-951q-76 0 -129.5 -53.5t-53.5 -129.5v-951q0 -76 53.5 -129.5t129.5 -53.5h951q76 0 129.5 53.5t53.5 129.5v951q0 76 -53.5 129.5t-129.5 53.5zM1609 1280v-951q0 -137 -96.5 -233t-232.5 -96h-951q-137 0 -233 96t-96 233v951q0 136 96 232.5t233 96.5h951 q136 0 232.5 -96.5t96.5 -232.5z" />
<glyph unicode="&#xf097;" horiz-adv-x="1462" d="M1317 1463h-1171v-1420l484 464l101 98l102 -98l484 -464v1420zM1330 1609q28 0 51 -10q37 -14 59.5 -46.5t22.5 -71.5v-1473q0 -39 -22.5 -71.5t-59.5 -46.5q-21 -9 -51 -9q-55 0 -95 37l-504 484l-504 -484q-41 -38 -94 -38q-28 0 -51 10q-37 14 -59.5 46.5t-22.5 71.5 v1473q0 39 22.5 71.5t59.5 46.5q23 10 51 10h1197z" />
<glyph unicode="&#xf098;" d="M1463 392q0 12 -2 18t-20.5 19t-46.5 29t-54 30.5t-52.5 28.5t-32.5 17q-4 2 -21 14t-29 17.5t-24 5.5q-21 0 -54 -37.5t-65 -74.5t-51 -37q-10 0 -22 4.5t-29.5 15t-20.5 12.5q-113 64 -194 145t-145 194q-2 3 -12.5 20.5t-15 29.5t-4.5 22q0 19 37.5 50.5t75 64.5 t37.5 54q0 12 -6 24.5t-17.5 29t-14.5 21.5q-3 6 -17 32t-28.5 52.5t-30 54t-28.5 46t-19 20.5q-9 3 -19 3q-51 0 -115 -26q-53 -24 -91.5 -108t-38.5 -149q0 -22 2.5 -43t10.5 -48t12 -39t17 -47t15 -40q68 -188 247 -367t366 -247q9 -3 35 -13t37 -14t34 -11t38 -10.5 t35 -6t39 -2.5q65 0 149 39t108 92q25 61 25 115zM1755 1280v-1097q0 -137 -96.5 -233t-232.5 -96h-1097q-137 0 -233 96t-96 233v1097q0 136 96 232.5t233 96.5h1097q136 0 232.5 -96.5t96.5 -232.5z" />
<glyph unicode="&#xf099;" horiz-adv-x="1901" d="M1851 1289q-76 -111 -185 -191q1 -16 1 -48q0 -123 -31 -247.5t-89.5 -241.5t-150 -219t-205 -178t-261.5 -120t-313 -44q-309 0 -567 166q50 -5 89 -5q256 0 459 158q-120 2 -214.5 73.5t-130.5 182.5q46 -6 69 -6q47 0 97 13q-128 26 -212 127.5t-84 234.5v5 q80 -44 167 -47q-76 50 -120 131.5t-44 175.5q0 100 50 186q138 -170 336 -272t425 -114q-9 40 -9 85q0 153 108 261t261 108q78 0 148.5 -31t121.5 -86q124 24 234 89q-41 -131 -162 -203q109 12 212 57z" />
<glyph unicode="&#xf09a;" horiz-adv-x="877" d="M584 1120h294l-35 -325h-259v-941h-390v941h-194v325h194v195q0 208 98.5 315t323.5 107h259v-324h-162q-44 0 -71 -7.5t-39 -27t-15.5 -39.5t-3.5 -57v-162z" />
<glyph unicode="&#xf09b;" d="M1755 731q0 -287 -167.5 -515.5t-432.5 -317.5q-31 -5 -45 8.5t-14 34.5v241q0 112 -59 162q54 6 98 16.5t92 30t84 52t66 77t45.5 110t15.5 147.5q0 137 -91 236q41 106 -9 233q-32 10 -92.5 -12.5t-104.5 -50.5l-44 -28q-111 30 -219 30q-109 0 -220 -30 q-7 5 -18.5 12.5t-44.5 26t-62 31t-62.5 20t-54.5 1.5q-49 -127 -8 -233q-90 -98 -90 -236q0 -97 23.5 -171.5t60.5 -120t92 -76t107 -44.5t117 -21q-45 -42 -56 -118q-24 -11 -51 -17t-65 -6t-75 24.5t-64 71.5q-21 37 -55 59.5t-57 27.5l-23 4q-24 0 -33.5 -5.5t-6 -13.5 t11 -16t14.5 -13l8 -6q25 -12 49.5 -44t36.5 -58l11 -26q14 -44 50 -71t76.5 -34t79.5 -7.5t65 4.5l25 4q0 -43 1 -101t1 -62q0 -21 -15 -34.5t-46 -8.5q-265 89 -432.5 317.5t-167.5 515.5q0 179 69.5 341.5t187 280t280 187t341.5 69.5t341.5 -69.5t279.5 -187t186.5 -280 t69.5 -341.5z" />
<glyph unicode="&#xf09c;" horiz-adv-x="1901" d="M805 183q0 7 -17.5 66t-39 129.5t-23.5 76.5q37 19 58.5 54t21.5 76q0 61 -43 103.5t-104 42.5t-103.5 -42.5t-42.5 -103.5q0 -41 22 -76t58 -54q-2 -6 -23.5 -76.5t-39 -129.5t-17.5 -66q0 -14 11.5 -25.5t25.5 -11.5h219q14 0 25.5 11.5t11.5 25.5zM1902 1097v-292 q0 -30 -21.5 -52t-51.5 -22h-74q-30 0 -51.5 22t-21.5 52v292q0 121 -85.5 207t-206.5 86t-207 -86t-86 -207v-219h110q46 0 78 -32t32 -78v-658q0 -46 -32 -78t-78 -32h-1097q-46 0 -78 32t-32 78v658q0 46 32 78t78 32h768v219q0 104 40.5 198.5t109.5 163.5t163.5 109.5 t198.5 40.5t198.5 -40.5t163.5 -109.5t109.5 -163.5t40.5 -198.5z" />
<glyph unicode="&#xf09d;" horiz-adv-x="2194" d="M2011 1609q76 0 129.5 -53.5t53.5 -129.5v-1389q0 -76 -53.5 -129.5t-129.5 -53.5h-1828q-76 0 -129.5 53.5t-53.5 129.5v1389q0 76 53.5 129.5t129.5 53.5h1828zM183 1463q-14 0 -25.5 -11.5t-11.5 -25.5v-256h1902v256q0 14 -11.5 25.5t-25.5 11.5h-1828zM2011 0 q14 0 25.5 11.5t11.5 25.5v694h-1902v-694q0 -14 11.5 -25.5t25.5 -11.5h1828zM293 146v147h292v-147h-292zM731 146v147h439v-147h-439z" />
<glyph unicode="&#xf09e;" horiz-adv-x="1609" d="M439 219q0 -91 -64.5 -155t-155.5 -64t-155 64t-64 155t64 155.5t155 64.5t155.5 -64.5t64.5 -155.5zM1024 79q2 -33 -19 -55q-21 -24 -54 -24h-154q-29 0 -49.5 19t-22.5 47q-25 262 -211 448t-448 211q-28 2 -47 22.5t-19 49.5v154q0 33 24 54q19 19 49 19h6 q182 -14 349 -91.5t297 -207.5t207.5 -297t91.5 -349zM1609 77q2 -32 -20 -54q-21 -23 -53 -23h-163q-29 0 -51 20t-23 49q-14 245 -115.5 466.5t-264 384.5t-384 265t-466.5 116q-29 1 -49 22t-20 50v163q0 32 23 53q20 20 50 20h4q300 -16 573.5 -138t485.5 -335 q213 -212 335 -485.5t138 -573.5z" />
<glyph unicode="&#xf0a0;" d="M1189 366q0 -38 -27.5 -65t-64.5 -27t-64 27t-27 65t27 64.5t64 26.5q38 0 65 -27t27 -64zM1481 366q0 -38 -27 -65t-64 -27q-38 0 -65 27t-27 65q0 37 27 64t65 27t64.5 -26.5t26.5 -64.5zM1609 183v366q0 14 -11 25t-25 11h-1390q-14 0 -25.5 -11t-11.5 -25v-366 q0 -14 11.5 -25.5t25.5 -11.5h1390q14 0 25 11.5t11 25.5zM203 731h1349l-179 551q-5 14 -18.5 24.5t-29.5 10.5h-894q-16 0 -29.5 -10.5t-18.5 -24.5zM1755 549v-366q0 -76 -53 -129.5t-129 -53.5h-1390q-76 0 -129.5 53.5t-53.5 129.5v366q0 27 18 85l225 693q20 60 72 98 t116 38h894q64 0 115.5 -38t71.5 -98l225 -693q18 -58 18 -85z" />
<glyph unicode="&#xf0a1;" horiz-adv-x="2048" d="M1902 1024q61 0 103.5 -42.5t42.5 -103.5t-42.5 -104t-103.5 -43v-438q0 -60 -43.5 -103.5t-103.5 -43.5q-478 398 -928 435q-66 -22 -104 -75.5t-35.5 -115t46.5 -105.5q-23 -38 -26.5 -75t7 -66t38.5 -63t55 -57.5t70 -57.5q-34 -66 -128 -94.5t-192.5 -13.5t-150.5 63 q-9 27 -34 100t-36 107.5t-26.5 102t-17.5 115.5t4 112.5t25 126.5h-139q-76 0 -129.5 53.5t-53.5 129.5v219q0 76 53.5 129.5t129.5 53.5h548q499 0 1024 439q60 0 103.5 -43t43.5 -103v-439zM1755 334v1090q-449 -345 -877 -392v-309q433 -48 877 -389z" />
<glyph unicode="&#xf0a2;" horiz-adv-x="1901" d="M969 -183q0 7 -5.5 12.5t-12.5 5.5q-67 0 -116 48.5t-49 116.5q0 8 -5 13t-13 5t-13 -5t-5 -13q0 -83 59 -142t142 -59q7 0 12.5 5.5t5.5 12.5zM209 146h1484q-188 207 -282 470t-94 554q0 293 -366 293t-366 -293q0 -291 -94 -554t-282 -470zM1902 146q0 -60 -43.5 -103 t-103.5 -43h-512q0 -121 -85.5 -207t-206.5 -86t-207 86t-86 207h-512q-60 0 -103 43t-43 103q217 184 328 454.5t111 569.5q0 188 109.5 299t301.5 134q-9 19 -9 43q0 46 32 77.5t78 31.5t78 -31.5t32 -77.5q0 -21 -10 -43q192 -23 302 -134t110 -299q0 -299 111 -569.5 t328 -454.5z" />
<glyph unicode="&#xf0a3;" d="M1573 731l157 -154q34 -33 23 -80q-13 -47 -59 -58l-215 -55l60 -213q13 -47 -21 -80q-33 -34 -80 -21l-213 60l-55 -215q-11 -46 -58 -59q-14 -2 -22 -2q-35 0 -58 25l-154 158l-155 -158q-33 -34 -80 -23q-47 12 -58 59l-55 215l-212 -60q-47 -13 -80 21q-35 33 -22 80 l61 213l-215 55q-47 11 -60 58q-11 47 23 80l158 154l-158 155q-34 33 -23 80q13 47 60 58l215 55l-61 212q-13 47 22 80q33 35 80 22l212 -60l55 214q12 48 58 59q47 13 80 -22l155 -159l154 159q33 35 80 22q46 -11 58 -59l55 -214l213 60q47 13 80 -22q34 -33 21 -80 l-60 -212l215 -55q46 -11 59 -58q11 -47 -23 -80z" />
<glyph unicode="&#xf0a4;" horiz-adv-x="2048" d="M293 219q0 30 -22 52t-52 22t-51.5 -22t-21.5 -52t21.5 -51.5t51.5 -21.5t52 21.5t22 51.5zM1902 878q0 58 -44.5 102t-102.5 44h-658q0 23 17 56t38 62.5t38 77.5t17 97q0 77 -51 111.5t-132 34.5q-9 0 -21 -13t-25.5 -36.5t-23 -41.5t-21.5 -42.5t-12 -25.5 q-37 -65 -42 -74q-45 -73 -128 -166q-4 -5 -14 -16q-35 -40 -56 -61.5t-56.5 -51.5t-72.5 -43.5t-77 -13.5h-36v-732h36q66 0 149.5 -23t151 -50t155.5 -50t162 -23q101 0 158.5 46t57.5 145q0 22 -6 64q34 19 54 60.5t20 83.5q0 45 -20 79q60 57 60 136q0 29 -11.5 63 t-28.5 54h378q59 0 103 44t44 103zM2048 879q0 -120 -86.5 -207t-206.5 -87h-193q-4 -70 -42 -136q3 -24 3 -49q0 -117 -68 -203q1 -159 -97.5 -251t-259.5 -92q-149 0 -368 79q-188 67 -255 67h-329q-61 0 -103.5 42.5t-42.5 103.5v732q0 61 42.5 103.5t103.5 42.5h329 q10 0 22 4.5t22.5 11t24 18t22.5 20t22.5 23t20 22t18.5 21.5t14 16q77 88 114 147q15 24 38 71t42 82t46 72t63.5 57t79.5 20q143 0 236 -76.5t93 -215.5q0 -78 -25 -147h427q119 0 206 -86.5t87 -204.5z" />
<glyph unicode="&#xf0a5;" horiz-adv-x="2048" d="M1573 146h36v732h-36q-40 0 -77 13.5t-72.5 43.5t-56.5 51.5t-56 61.5q-10 11 -14 16q-83 93 -128 166q-10 15 -43 77q-2 4 -12.5 25.5t-21 41t-23 41.5t-24.5 35t-21 13q-81 0 -132 -34.5t-51 -111.5q0 -49 17 -97t38 -77.5t38 -62.5t17 -56h-658q-58 0 -102.5 -44 t-44.5 -102q0 -59 44 -103t103 -44h378q-17 -20 -28.5 -54t-11.5 -63q0 -79 60 -136q-20 -34 -20 -79q0 -42 20 -83.5t54 -60.5q-4 -28 -4 -64q0 -98 55.5 -144.5t154.5 -46.5q76 0 165 23t156.5 50t151 50t149.5 23zM1902 219q0 30 -21.5 52t-51.5 22t-52 -22t-22 -52 t22 -51.5t52 -21.5t51.5 21.5t21.5 51.5zM2048 878v-732q0 -61 -42.5 -103.5t-103.5 -42.5h-329q-67 0 -255 -67q-220 -79 -363 -79q-162 0 -262.5 89t-99.5 248l1 6q-69 86 -69 203q0 25 3 49q-38 66 -42 136h-193q-120 0 -206.5 87t-86.5 207q0 118 87 204.5t206 86.5h427 q-25 69 -25 147q0 139 93 215.5t236 76.5q43 0 79.5 -20t63.5 -57t46 -72t42 -82t38 -71q37 -59 114 -147q2 -2 14 -16t18.5 -21.5t20 -22t22.5 -23t22.5 -20t24 -18t22.5 -11t22 -4.5h329q61 0 103.5 -42.5t42.5 -103.5z" />
<glyph unicode="&#xf0a6;" d="M1463 -73q0 30 -21.5 51.5t-51.5 21.5t-51.5 -21.5t-21.5 -51.5t21.5 -51.5t51.5 -21.5t51.5 21.5t21.5 51.5zM1609 800q0 216 -191 216q-22 0 -64 -6q-19 34 -60.5 54.5t-83.5 20.5q-43 0 -79 -21q-58 61 -136 61q-29 0 -63 -11.5t-54 -28.5v378q0 59 -44 102.5 t-103 43.5q-58 0 -102 -44t-44 -102v-658q-23 0 -55.5 17t-62.5 37.5t-77.5 37.5t-96.5 17q-77 0 -112 -51t-35 -132q0 -9 13 -21t36 -25.5t42 -23t42.5 -20.5t25.5 -12q50 -28 74 -43q73 -45 166 -128q88 -77 115 -108q71 -82 71 -167v-37h732v37q0 66 23 149.5t50 151 t50 155t23 161.5zM1755 806q0 -152 -78 -368q-68 -190 -68 -255v-329q0 -61 -42.5 -104t-103.5 -43h-732q-61 0 -103.5 43t-42.5 104v329q0 10 -4.5 22t-11 22.5t-18 24t-20 22.5t-23 22.5t-22 20t-21.5 18.5t-16 14q-88 77 -147 114q-24 15 -71 37.5t-82 42t-72 46.5 t-57 63t-20 79q0 143 77 236.5t216 93.5q74 0 146 -26v428q0 119 86.5 205.5t204.5 86.5q120 0 207 -86t87 -206v-193q68 -4 136 -43q32 4 49 4q117 0 204 -69q159 1 250.5 -97t91.5 -259z" />
<glyph unicode="&#xf0a7;" d="M1609 658q0 76 -23 165t-50 156.5t-50 151t-23 149.5v37h-732v-37q0 -18 -3.5 -36t-7 -31.5t-14.5 -32t-16 -28t-21.5 -28.5t-21.5 -25t-26 -25.5t-24 -23t-27 -24t-25 -21.5q-93 -83 -166 -128q-25 -16 -77 -44q-4 -2 -25.5 -12.5t-41 -21t-41.5 -23t-35 -24.5t-13 -21 q0 -81 35 -131.5t112 -50.5q63 0 120.5 27.5t100.5 54.5t71 27v-658q0 -58 44 -102t102 -44q59 0 103 43.5t44 102.5v378q52 -40 117 -40q78 0 136 61q36 -21 79 -21q42 0 83.5 20.5t60.5 54.5q35 -5 64 -5q98 0 144.5 55.5t46.5 154.5zM1463 1536q0 30 -21.5 51.5 t-51.5 21.5t-51.5 -21.5t-21.5 -51.5t21.5 -51.5t51.5 -21.5t51.5 21.5t21.5 51.5zM1755 663q0 -162 -89 -262.5t-248 -99.5l-5 1q-87 -70 -204 -70q-25 0 -49 3q-59 -33 -136 -42v-193q0 -120 -87 -206.5t-207 -86.5q-118 0 -204.5 87t-86.5 206v427q-62 -25 -146 -25 q-139 0 -216 93t-77 236q0 43 20 79.5t57 63.5t72 46t82 42t71 38q59 37 147 114q2 2 16 14t21.5 18.5t22 20t23 22.5t20 22.5t18 24t11 22.5t4.5 22v329q0 61 42.5 103.5t103.5 42.5h732q61 0 103.5 -42.5t42.5 -103.5v-329q0 -65 68 -255q78 -217 78 -362z" />
<glyph unicode="&#xf0a8;" d="M1463 658v147q0 30 -21.5 51.5t-51.5 21.5h-574l216 216q22 22 22 51q0 30 -22 52l-104 104q-20 20 -51 20q-32 0 -52 -20l-414 -414l-104 -104q-20 -20 -20 -52q0 -31 20 -51l104 -104l414 -414q20 -20 52 -20q31 0 51 20l104 104q21 21 21 52q0 30 -21 51l-216 216h574 q30 0 51.5 21.5t21.5 51.5zM1755 731q0 -179 -69.5 -341.5t-186.5 -279.5t-279.5 -186.5t-341.5 -69.5t-341.5 69.5t-280 186.5t-187 279.5t-69.5 341.5t69.5 341.5t187 280t280 187t341.5 69.5t341.5 -69.5t279.5 -187t186.5 -280t69.5 -341.5z" />
<glyph unicode="&#xf0a9;" d="M1469 731q0 31 -21 52l-104 104l-414 414q-20 20 -51 20q-32 0 -52 -20l-104 -104q-20 -20 -20 -52q0 -31 20 -51l216 -216h-573q-30 0 -51.5 -21.5t-21.5 -51.5v-147q0 -30 21.5 -51.5t51.5 -21.5h573l-216 -216q-21 -21 -21 -51q0 -31 21 -52l104 -104q20 -20 52 -20 q31 0 51 20l414 414l104 104q21 21 21 51zM1755 731q0 -179 -69.5 -341.5t-186.5 -279.5t-279.5 -186.5t-341.5 -69.5t-341.5 69.5t-280 186.5t-187 279.5t-69.5 341.5t69.5 341.5t187 280t280 187t341.5 69.5t341.5 -69.5t279.5 -187t186.5 -280t69.5 -341.5z" />
<glyph unicode="&#xf0aa;" d="M1467 733q0 31 -20 51l-414 414l-104 104q-20 20 -51 20q-32 0 -52 -20l-104 -104l-413 -414q-21 -21 -21 -51q0 -31 21 -52l104 -104q20 -20 51 -20t51 20l216 216v-574q0 -30 22 -51.5t52 -21.5h146q30 0 51.5 21.5t21.5 51.5v574l216 -216q22 -22 51 -22q30 0 52 22 l104 104q20 20 20 52zM1755 731q0 -179 -69.5 -341.5t-186.5 -279.5t-279.5 -186.5t-341.5 -69.5t-341.5 69.5t-280 186.5t-187 279.5t-69.5 341.5t69.5 341.5t187 280t280 187t341.5 69.5t341.5 -69.5t279.5 -187t186.5 -280t69.5 -341.5z" />
<glyph unicode="&#xf0ab;" d="M1467 730q0 32 -20 52l-104 104q-20 20 -52 20q-31 0 -51 -20l-216 -216v573q0 30 -21.5 52t-51.5 22h-146q-30 0 -52 -22t-22 -52v-573l-216 216q-21 21 -51 21t-51 -21l-104 -104q-21 -21 -21 -52q0 -30 21 -51l413 -414l104 -104q20 -20 52 -20q31 0 51 20l104 104 l414 414q20 20 20 51zM1755 731q0 -179 -69.5 -341.5t-186.5 -279.5t-279.5 -186.5t-341.5 -69.5t-341.5 69.5t-280 186.5t-187 279.5t-69.5 341.5t69.5 341.5t187 280t280 187t341.5 69.5t341.5 -69.5t279.5 -187t186.5 -280t69.5 -341.5z" />
<glyph unicode="&#xf0ac;" d="M1363 1135q16 12 29 25v-1q0 -3 -11 -11.5t-13 -13.5q-1 1 -5 1zM1357 1134q-1 1 -3 3.5t-2 3.5q4 -3 11 -6q-6 -4 -6 -1zM832 1343q-13 1 -30 6q22 -4 30 -6zM883 1385q7 5 15 3t9 -9q-9 4 -24 6zM874 1378l-3 3q-3 3 -7 5.5t-5 2.5q8 -2 24 -4q-6 -4 -9 -7zM758 1474v3 q1 -2 3.5 -6.5t3.5 -6.5q-1 1 -3.5 5t-3.5 5zM638 1429q0 -3 -1 -3l-2 3h3zM1066 235v-1v1zM878 1609q179 0 341.5 -69.5t279.5 -187t186.5 -280t69.5 -341.5t-69.5 -341.5t-186.5 -279.5t-279.5 -186.5t-341.5 -69.5t-341.5 69.5t-280 186.5t-187 279.5t-69.5 341.5 t69.5 341.5t187 280t280 187t341.5 69.5zM1417 185l6 6q-9 12 -33 14q1 14 -16.5 30.5t-30.5 17.5q0 5 -12 12.5t-20 8.5q-10 2 -31 -9q-8 -5 -5 -7q-5 3 -14.5 12t-17.5 13q-3 1 -8.5 1t-9.5 3q-2 1 -8.5 6t-9.5 6.5t-9 3t-11.5 -1t-10.5 -8.5q-4 -5 -5 -18t-3 -17 q-9 7 -0.5 23t1.5 23q-10 7 -25 0t-23 -17q-1 -1 -11 -6t-13 -9q-5 -6 -10 -18.5t-7 -16.5q0 3 -3 7.5t-3 6.5q-15 -2 -18 4q6 -19 9 -20l-4 3q-1 -6 3 -16.5t5 -13.5q1 -5 -2 -14t-3 -13q0 -1 6 -13q4 -22 -3 -37l-4 -7l-7 -14l-2 -5l-2 1q-2 1 -3 0q-1 -6 -10.5 -14.5 t-11.5 -12.5q-18 -26 -10 -44q3 -9 11 -11q3 0 4 2q1 -11 -13 -31q1 -1 3 -2l2 -1q-20 0 -11 -16q229 40 402 207h-4q-1 0 2 1t4 1zM777 397q14 3 23 -5t18.5 -21.5t19.5 -18.5q46 -23 67 -13q0 -11 16 -32q3 -4 7.5 -13t6.5 -12q6 -7 21.5 -18t21.5 -18q8 3 11 10 q5 -16 17 -32.5t19 2.5q0 -1 -0.5 -3.5t-1.5 -3.5q9 16 6 30l6 5q6 4 6 5q-7 7 -10 -3q-35 -17 -55 25l-2 4l-3.5 7t-3.5 8t-2.5 8t-1 6.5t1.5 5.5t5 2q12 0 14 2t-2.5 7t-4.5 8q-1 5 -1.5 14.5t-1.5 14.5l-6 7q-5 7 -12.5 15.5t-9.5 10.5q-5 -11 -19 -9.5t-21 10.5 q1 -3 -0.5 -8t-1.5 -7q-12 0 -19 2q1 4 3 22t5 27q1 5 6.5 15t9 18t5 15.5t-5 12t-21.5 3.5q-23 -1 -33 -25q-2 -4 -4 -13.5t-5.5 -14.5t-10.5 -8q-10 -4 -31 -2.5t-29 6.5q-16 9 -27.5 35t-12.5 47q0 11 3.5 31t3.5 30.5t-7 30.5q3 3 11 13t13 13q2 2 9.5 2t9.5 9 q-1 1 -3 2.5t-4 3.5l-2 1q4 -4 21.5 -1.5t21.5 2.5q0 2 26 0q19 -15 27 2l-3 12q-3 11 0 17q5 -35 36 -12q4 -4 19 -6t21 -6q4 -2 8.5 -6.5t7 -6t6.5 0t10 7.5q14 -21 15 -28q10 -48 23 -55q24 -14 20 29q-1 3 -2 13l-2 42q-19 4 -23 15t2.5 23t18.5 22q1 1 19 9.5t24 13.5 q27 21 19 44q4 -1 8 2.5t5 8.5l-6 3q-5 4 -9.5 6.5t-5.5 1.5q13 9 3 21q6 3 9 13t10 13q10 -15 25 -3q12 10 3 20q6 9 25 13t23 11q6 -2 8.5 1t1.5 8t0 11.5t4 11.5q5 6 18.5 11t16.5 7l20 13q5 6 1 6q21 -2 37 12q15 14 -6 26q2 7 -5.5 12t-17.5 7q3 1 14 0t14 2 q19 13 -8 19q-22 7 -54 -14q-5 -3 -15.5 -14.5t-18.5 -12.5q17 19 6 25q9 -1 25 10.5t18 12.5q4 2 12 3t10 2q25 9 36.5 12t34.5 2t34 -15q1 2 4 5q16 22 32 29l5 2q22 6 26 11l1 26q-13 -1 -20 9t-8 25l-1 -1q-1 -2 -3 -4t-3 -4q0 6 -4 8t-8.5 1.5t-10.5 -2t-9 -0.5 q-10 3 -22 18t-17 18q10 0 10 6t-11 9q1 7 -2.5 9t-10.5 0q-2 13 -1 15q-7 1 -12.5 12.5t-8.5 11.5q-4 1 -21 -23l-2 -2q-14 7 -28 -11q-8 1 -19 -3q16 6 3.5 14.5t-25.5 3.5q14 6 12 16t-14 18q1 0 4.5 -1t4.5 -1q-1 6 -10.5 11t-22 10t-16.5 7q-8 6 -41 12t-41 2 q-6 -4 -7 -7.5t1.5 -9.5t3.5 -9l6 -31q-1 -4 -9.5 -9.5t-6.5 -13.5q1 -5 13.5 -11.5t14.5 -13.5q6 -14 -5 -29q-5 -6 -17 -12.5t-16 -11.5q-5 -6 -4 -13.5t0 -10.5l3 6q0 -15 12 -25q10 -7 -18 -21q-23 -11 -23 -4q1 9 -8.5 18.5t-11.5 13.5t-4 21.5t-11 23.5q-7 5 -22 5 t-21 -6q0 9 -56 34q-20 9 -66 5q7 1 1 18q-8 22 -25 15q-9 30 -4 40q3 6 10 16t10 17q1 4 18 7.5t19 8.5q1 4 -3.5 7.5t-10.5 5.5q61 -6 72 20q5 11 3 16q1 -1 3 -1t2 -1q13 3 8 20q24 9 30 9q6 -1 12.5 -7t11.5 -6q19 -4 24.5 11.5t-11.5 26.5q8 -4 8 6q-1 15 -8 22 q-3 3 -7 3.5t-7.5 0t-7.5 0.5q-2 0 -10 2q-1 -1 -2 -1h-9q-5 -2 -5 -6v-1q-1 -4 5 -7l6 -1l3 -2q-1 0 -3 -3t-3 -3q0 -4 4 -6q-3 -2 -16.5 -8.5t-19.5 -11.5l-9 -6q-2 -1 -4.5 2.5t-5 10t-4.5 13t-5 11.5t-6 5q-14 0 -20 -19q4 11 -15 20t-29 9q22 17 -10 34l-1 1 q-23 -3 -52 -8q-1 -6 4 -14q-1 -8 7 -10l1 -1v-1v1l-1 1q4 -1 11.5 -1.5t10.5 -1.5q3 -2 5 -3t8.5 -5.5t6.5 -6.5t-2 -6q-31 -13 -32 -15q-3 -6 0 -18.5t-3 -16.5q-6 5 -11 20.5t-9 20.5q9 -11 -34 -7l-10 1q-5 0 -17 -2t-18 -1q-3 0 -33 7q7 20 5 28q6 0 8 2q-1 0 -3 2 t-3 2q-5 -1 -16 -5.5t-13 -4.5q2 -3 8.5 -10.5t10.5 -13.5q-24 5 -30 -3q0 -1 -9 0q-29 2 -29 -6q0 -5 10 -15q0 -11 -1 -11q-3 3 -10 9t-12.5 10.5t-11.5 7.5q-196 -95 -316 -284q1 -2 2 -5.5t1.5 -6.5t1.5 -6t2.5 -4t4.5 0t8 5q10 -10 3 -24q2 2 39 -22q67 -47 27 -63 q1 2 1.5 7t0.5 7q-8 -1 -22 6q-3 -7 1 -23t13 -16q-8 0 -11 -19.5t-3 -44t-2 -29.5l2 -1q-3 -15 7 -43t27 -23q-4 -21 6 -24q0 -6 -0.5 -9t5 -9.5t7.5 -9t8 -8t7 -6.5q32 -13 47 -33q5 -7 12.5 -28.5t17.5 -29.5q-2 -7 11.5 -24.5t12.5 -28.5q-1 0 -3 -0.5t-3 -0.5 q3 -9 18.5 -18.5t19.5 -16.5q2 -3 3 -12t3.5 -13.5t9.5 -2.5q3 27 -30 77q-12 19 -20 36q-3 6 -6.5 18.5t-5.5 17.5q31 -10 30 -14q-5 -10 30 -60q3 -3 11.5 -11t12.5 -14q4 -5 11 -17t11 -17q-1 0 -3 -2.5t-3 -3.5q4 -3 12 -7t13.5 -8t10.5 -10q19 -22 23 -38q1 -4 0 -17.5 t2 -18.5q2 -5 5 -9.5t7.5 -8.5t8.5 -7t11 -6.5l10 -5t11 -5t10 -4.5q4 -2 21.5 -13.5t27.5 -15.5q16 -4 20 -4.5t16 3t19 4.5z" />
<glyph unicode="&#xf0ad;" horiz-adv-x="1901" d="M439 73q0 30 -21.5 51.5t-51.5 21.5t-51.5 -21.5t-21.5 -51.5t21.5 -51.5t51.5 -21.5t51.5 21.5t21.5 51.5zM1175 553l-780 -779q-43 -43 -102 -43t-104 43l-122 123q-43 41 -43 103q0 61 43 104l779 778q44 -113 130 -199t199 -130zM1899 1050q0 -47 -26 -121 q-54 -153 -188 -248.5t-295 -95.5q-104 0 -198.5 40.5t-163.5 109.5t-109.5 163.5t-40.5 198.5t40.5 198.5t109.5 163.5t163.5 109.5t198.5 40.5q65 0 138 -19t123 -53q19 -14 19 -32q0 -19 -19 -32l-334 -193v-256l220 -122q4 2 90 55t156 93t80 40q17 0 26.5 -11t9.5 -29z " />
<glyph unicode="&#xf0ae;" horiz-adv-x="2048" d="M1170 146h732v147h-732v-147zM731 731h1171v147h-1171v-147zM1463 1317h439v146h-439v-146zM2048 366v-293q0 -30 -21.5 -51.5t-51.5 -21.5h-1902q-30 0 -51.5 21.5t-21.5 51.5v293q0 30 21.5 51.5t51.5 21.5h1902q30 0 51.5 -21.5t21.5 -51.5zM2048 951v-293 q0 -30 -21.5 -51.5t-51.5 -21.5h-1902q-30 0 -51.5 21.5t-21.5 51.5v293q0 30 21.5 51.5t51.5 21.5h1902q30 0 51.5 -21.5t21.5 -51.5zM2048 1536v-293q0 -30 -21.5 -51.5t-51.5 -21.5h-1902q-30 0 -51.5 21.5t-21.5 51.5v293q0 30 21.5 51.5t51.5 21.5h1902 q30 0 51.5 -21.5t21.5 -51.5z" />
<glyph unicode="&#xf0b0;" horiz-adv-x="1609" d="M1603 1418q19 -47 -16 -80l-563 -563v-848q0 -22 -12.5 -41t-32.5 -27q-15 -5 -28 -5q-32 0 -52 21l-292 293q-22 22 -22 51v556l-563 563q-35 33 -16 80q8 20 26.5 32.5t40.5 12.5h1463q22 0 40.5 -12.5t26.5 -32.5z" />
<glyph unicode="&#xf0b1;" horiz-adv-x="2048" d="M731 1463h586v146h-586v-146zM2048 731v-548q0 -76 -53.5 -129.5t-129.5 -53.5h-1682q-76 0 -129.5 53.5t-53.5 129.5v548h768v-182q0 -30 21.5 -52t51.5 -22h366q30 0 51.5 22t21.5 52v182h768zM1170 731v-146h-292v146h292zM2048 1280v-439h-2048v439q0 76 53.5 129.5 t129.5 53.5h402v183q0 46 32 77.5t78 31.5h658q46 0 78 -31.5t32 -77.5v-183h402q76 0 129.5 -53.5t53.5 -129.5z" />
<glyph unicode="&#xf0b2;" d="M1466 1137l-405 -406l405 -405l165 164q33 35 80 16q44 -19 44 -67v-512q0 -30 -21.5 -51.5t-51.5 -21.5h-512q-22 0 -40.5 12.5t-26.5 32.5q-19 45 16 79l164 165l-405 406l-406 -406l165 -165q35 -34 16 -79q-8 -20 -27 -32.5t-41 -12.5h-512q-30 0 -51.5 21.5 t-21.5 51.5v512q0 48 46 67q45 19 79 -16l164 -164l406 405l-406 406l-164 -164q-22 -22 -52 -22q-11 0 -27 6q-46 19 -46 67v512q0 30 21.5 51.5t51.5 21.5h512q22 0 41 -13t27 -33q19 -45 -16 -78l-165 -165l406 -406l405 406l-164 165q-35 33 -16 78q19 46 67 46h512 q30 0 51.5 -21.5t21.5 -51.5v-512q0 -48 -44 -67q-18 -6 -29 -6q-29 0 -51 22z" />
</font>
</defs>
</svg>
