<?xml version="1.0" standalone="no"?>
<!DOCTYPE svg PUBLIC "-//W3C//DTD SVG 1.1//EN" "http://www.w3.org/Graphics/SVG/1.1/DTD/svg11.dtd" >
<!--
2016-5-13: Created with FontForge (http://fontforge.org)
-->
<svg xmlns="http://www.w3.org/2000/svg" xmlns:xlink="http://www.w3.org/1999/xlink" version="1.1">
<metadata>
Created by FontForge 20150913 at Fri May 13 16:03:41 2016
 By System Administrator
Copyright (c) 2016, System Administrator
</metadata>
<defs>
<font id="zocial" horiz-adv-x="512" >
  <font-face 
    font-family="zocial"
    font-weight="400"
    font-stretch="normal"
    units-per-em="512"
    panose-1="2 0 5 3 0 0 0 0 0 0"
    ascent="448"
    descent="-64"
    bbox="-96 -79.3604 667.062 521.728"
    underline-thickness="25.6"
    underline-position="-51.2"
    unicode-range="U+0020-F168"
  />
    <missing-glyph />
    <glyph glyph-name="space" unicode=" " horiz-adv-x="200" 
 />
    <glyph glyph-name="uniF122" unicode="&#xf122;" 
d="M44.9922 -64l213.504 512l213.504 -512h-188.928v69.1201l87.04 43.5361l-6.65625 28.1602l-80.3838 -40.4648v34.3203l50.1758 26.624l-7.15234 29.1846l-43.0078 -23.0244v44.5283h-47.1035v-80.3682l-44.0166 30.1914l-8.19141 -32.752l52.2236 -35.8398v-93.2158
h-191.008z" />
    <glyph glyph-name="uniF150" unicode="&#xf150;" 
d="M0 191.488c0 46.4212 11.4346 89.2585 34.3037 128.512c22.8698 39.2533 53.9313 70.3145 93.1846 93.1836c39.2533 22.8698 82.0905 34.3047 128.512 34.3047c46.4212 0 89.2585 -11.4349 128.512 -34.3047c39.2533 -22.8691 70.3148 -53.9303 93.1846 -93.1836
c22.8691 -39.2533 34.3037 -82.0905 34.3037 -128.512c0 -34.4746 -6.48535 -67.2428 -19.4561 -98.3047c-12.9707 -31.0612 -31.2321 -58.3678 -54.7842 -81.9199c-20.4798 24.9173 -45.3118 44.3734 -74.4961 58.3682c-29.1836 13.9948 -60.3301 20.9922 -93.4395 20.9922
c-36.5228 0 -70.4857 -8.44792 -101.889 -25.3438c-31.4023 -16.8965 -57.1729 -39.8512 -77.3115 -68.8643c-28.3307 24.2344 -50.5173 53.2477 -66.5596 87.04c-16.043 33.7917 -24.0645 69.8024 -24.0645 108.032zM83.9678 265.216
c0 -5.80273 2.04818 -10.8372 6.14453 -15.1035c4.0957 -4.26693 9.21549 -6.40039 15.3594 -6.40039c2.04818 0 3.58431 0.170573 4.6084 0.511719c49.1517 19.7975 100.01 29.6963 152.576 29.6963c52.5651 0 103.424 -9.89876 152.576 -29.6963
c0.341146 0 1.02376 -0.0852865 2.04785 -0.255859s1.87728 -0.255859 2.55957 -0.255859c5.80273 0 10.8376 2.13346 15.1045 6.40039c4.26628 4.26628 6.39941 9.30078 6.39941 15.1035c0 8.5332 -3.92513 14.848 -11.7754 18.9443
c-54.2721 21.5039 -109.91 32.2559 -166.912 32.2559c-58.0267 0 -114.176 -10.9225 -168.448 -32.7676c-6.82682 -4.4375 -10.2402 -10.5817 -10.2402 -18.4326zM107.52 188.928l3.07227 -8.19141c2.73112 -4.4375 6.65658 -6.65625 11.7764 -6.65625
c1.02409 0 2.5599 0.341146 4.60742 1.02344c43.3496 18.7734 88.5765 28.1602 135.681 28.1602c47.4453 0 93.0133 -9.55729 136.704 -28.6719c1.36523 -0.682292 2.5599 -1.02344 3.58398 -1.02344c5.11979 0 9.04492 2.21842 11.7754 6.65527l2.56055 8.7041
c0 4.4375 -1.70671 8.02148 -5.12012 10.752c-47.1042 21.1628 -96.9388 31.7441 -149.504 31.7441c-52.224 0 -102.229 -10.5814 -150.017 -31.7441c-3.41341 -3.41341 -5.12012 -6.9974 -5.12012 -10.752zM132.096 115.2c3.41341 -8.5332 8.7041 -11.264 15.8721 -8.19238
c36.8639 17.4082 75.0934 26.1123 114.688 26.1123c38.2292 0 75.6051 -8.19206 112.128 -24.5762c8.19206 -4.4375 14.1654 -2.38932 17.9199 6.14453c1.70638 4.43685 1.70638 8.36198 0 11.7754c-1.70703 3.41341 -4.09635 5.97331 -7.16797 7.67969
c-36.1816 18.0911 -77.1416 27.1367 -122.88 27.1367c-43.6908 0 -85.3337 -9.38672 -124.929 -28.1602c-6.48503 -3.41341 -8.3623 -9.38672 -5.63184 -17.9199zM163.328 -47.1035c12.6296 16.3835 28.2454 29.3538 46.8477 38.9111
c18.6029 9.55729 38.4857 14.3359 59.6484 14.3359c38.9121 0 71.8506 -14.6771 98.8154 -44.0312c-35.4987 -17.7493 -73.0452 -26.624 -112.64 -26.624c-32.0853 0 -62.9759 5.80273 -92.6719 17.4082z" />
    <glyph glyph-name="uniF145" unicode="&#xf145;" 
d="M0 180.736c0 48.1276 11.4346 92.5863 34.3037 133.376c22.8698 40.7891 53.9313 73.0449 93.1846 96.7676s82.0905 35.584 128.512 35.584c46.4212 0 89.2585 -11.8613 128.512 -35.584s70.3148 -55.9785 93.1846 -96.7676
c22.8691 -40.7897 34.3037 -85.2484 34.3037 -133.376c0 -1.36523 -0.0852865 -3.07194 -0.255859 -5.12012s-0.255859 -3.75488 -0.255859 -5.12012c-2.73112 70.9974 -28.7578 131.243 -78.0801 180.736c-49.3229 49.4928 -108.459 74.2393 -177.408 74.2393
s-128.085 -24.7464 -177.408 -74.2393c-49.3223 -49.4935 -75.349 -109.739 -78.0801 -180.736c0 1.36523 -0.0852865 3.07194 -0.255859 5.12012c-0.170573 2.04818 -0.255859 3.75488 -0.255859 5.12012zM93.6963 181.248c0 46.4212 15.8717 86.1012 47.6152 119.04
c31.7441 32.9388 69.9736 49.4082 114.688 49.4082s82.9443 -16.4694 114.688 -49.4082c31.7435 -32.9388 47.6152 -72.6188 47.6152 -119.04c0 -1.02409 -0.0852865 -2.73079 -0.255859 -5.12012s-0.255859 -4.09603 -0.255859 -5.12012
c-2.73047 44.0319 -19.6266 81.4079 -50.6885 112.128c-31.0612 30.7201 -68.0957 46.0801 -111.104 46.0801s-80.0423 -15.36 -111.104 -46.0801c-31.0618 -30.7201 -47.958 -68.096 -50.6885 -112.128c0 1.02409 -0.0852865 2.73079 -0.255859 5.12012
s-0.255859 4.09603 -0.255859 5.12012zM178.688 81.4082c0 11.2637 0.767904 21.333 2.30371 30.208c1.53581 8.87435 3.3278 16.2129 5.37598 22.0156s5.2054 10.7523 9.47168 14.8486c4.26693 4.0957 8.19238 7.16764 11.7764 9.21582
c3.58398 2.04753 8.44792 3.66862 14.5918 4.86328s11.4346 1.8776 15.8721 2.04883c4.4375 0.170573 10.4108 0.255859 17.9199 0.255859c7.50911 0 13.4824 -0.0852865 17.9199 -0.255859c4.4375 -0.171224 9.72819 -0.854167 15.8721 -2.04883
s11.0078 -2.81576 14.5918 -4.86328c3.58398 -2.04818 7.50944 -5.12012 11.7764 -9.21582c4.26628 -4.09635 7.4235 -9.0459 9.47168 -14.8486s3.84017 -13.1413 5.37598 -22.0156c1.53581 -8.875 2.30371 -18.9443 2.30371 -30.208
c0 -40.2773 -7.5944 -74.8376 -22.7832 -103.681c-15.1895 -28.8424 -33.3656 -43.2637 -54.5283 -43.2637c-21.1628 0 -39.3389 14.4212 -54.5283 43.2637c-15.1888 28.8431 -22.7832 63.4033 -22.7832 103.681zM202.752 224.768c0 15.0189 5.2054 27.9896 15.6162 38.9121
c10.4108 10.9232 22.9548 16.3848 37.6318 16.3848c14.6771 0 27.221 -5.46159 37.6318 -16.3848c10.4108 -10.9225 15.6162 -23.8932 15.6162 -38.9121c0 -15.0182 -5.2054 -27.9886 -15.6162 -38.9111c-10.4108 -10.9232 -22.9548 -16.3848 -37.6318 -16.3848
c-14.6771 0 -27.221 5.46159 -37.6318 16.3848c-10.4108 10.9225 -15.6162 23.8929 -15.6162 38.9111z" />
    <glyph glyph-name="uniF123" unicode="&#xf123;" 
d="M-46.5283 221.184c0 35.8408 13.0566 66.4648 39.168 91.9043c26.1123 25.4238 57.6006 38.1445 94.4639 38.1445c29.0088 0 55.04 -8.19238 78.0801 -24.5762s39.168 -37.5527 48.3848 -63.4883l33.792 32.7676l80.8955 -77.8232l223.744 228.352v-207.36
l-136.72 -105.472l17.4238 -18.416l-185.856 -180.752l-161.792 157.2c-36.5273 0.671875 -67.584 13.6641 -93.1836 38.9121s-38.4004 55.4395 -38.4004 90.6074zM-27.584 221.184c0 -30.7197 11.0879 -56.8477 33.2803 -78.3359
c22.1914 -21.4873 48.9756 -32.2559 80.3838 -32.2559c11.2637 0 22.3516 1.53613 33.2803 4.6084l112.64 -99.8398l299.52 235.52l0.512695 154.624l-295.937 -305.168l-46.0801 74.752c6.81641 14.6885 10.2402 30.0479 10.2402 46.0957
c0 30.3682 -11.1836 56.4004 -33.5361 78.0801c-22.3682 21.6807 -49.248 32.5127 -80.6396 32.5127c-31.4082 0 -58.1924 -10.832 -80.3838 -32.5127c-22.1924 -21.6797 -33.2803 -47.6953 -33.2803 -78.0801zM-3.00781 220.16c0 23.9043 8.44824 44.2881 25.3438 61.1836
c16.8965 16.8965 37.2959 25.3447 61.1836 25.3447c23.8887 0 44.2881 -8.35254 61.1846 -25.0889c16.8955 -16.7197 25.3438 -37.2158 25.3438 -61.4395c0 -23.8877 -8.44824 -44.2881 -25.3438 -61.1846c-16.8965 -16.8955 -37.2959 -25.3438 -61.1846 -25.3438
c-23.8877 0 -44.2871 8.44824 -61.1836 25.3438c-16.8955 16.8965 -25.3438 37.2969 -25.3438 61.1846z" />
    <glyph glyph-name="uniF165" unicode="&#xf165;" 
d="M320 224.653v63.3467c0 16 -16 64 -96 80s-128 16 -160 16s-64 -32 -64 -80v-96c0 -16 16 -80 64 -80s80 0 160 16c5.64648 1.12891 10.9746 2.26465 16 3.41602v-67.416c0 -32 64 -64 160 -64c80 0 112 16 112 80v64c0 32 -16 80 -64 80
c-25.0498 0 -80.6035 -4.35742 -128 -15.3467zM314.479 189.341c40.2979 12.4395 97.5684 18.6592 117.521 18.6592c32 0 48 -16 48 -48v-64c0 -32 -16 -48 -48 -48s-160 0 -160 48v60.4053c23.5488 8.36914 36.1797 18.4473 42.4795 32.9355z" />
    <glyph glyph-name="uniF127" unicode="&#xf127;" 
d="M36.6084 -72.1924v507.904l256.512 -253.968zM36.6084 -72.1924l256.512 253.937l68.6074 -68.0957l-103.439 -59.9043l-221.68 -128v2.06348zM36.6084 435.712v2.04785l325.119 -187.903l-68.6074 -68.1123zM293.12 181.744l68.6074 68.1123l118.272 -68.1123
l-118.272 -68.0957z" />
    <glyph glyph-name="uniF137" unicode="&#xf137;" 
d="M-53.8877 176.128v17.4082c0 38.5762 14.3359 72.1914 43.0078 100.864c28.6719 28.6719 65.3604 43.0078 110.08 43.0078c46.416 0 88.5762 -19.1045 126.464 -57.3438c7.16797 -6.83203 16.3838 -17.4082 27.6475 -31.7441l49.1367 -64.5127
c13.3115 -17.7432 22.1914 -28.8477 26.624 -33.2793c25.2637 -25.2646 50.3359 -37.8887 75.2793 -37.8887c20.1289 0 36.5127 6.83203 49.1367 20.4805c11.2637 11.248 17.7441 25.7598 19.4561 43.5195c0.335938 1.69629 0.511719 4.09668 0.511719 7.16797
c0 7.50391 -1.00781 14.4961 -3.07227 20.9922c-3.05566 10.5918 -8.6875 20.3203 -16.8955 29.1846c0 0.335938 -0.176758 0.511719 -0.512695 0.511719c-12.9756 13.6475 -29.1836 20.4795 -48.624 20.4795c-26.624 0 -51.7119 -12.6396 -75.2793 -37.8877
l-43.5205 56.832c-2.04785 2.71973 -3.74414 4.94434 -5.10352 6.65625c18.7676 20.4795 38.0635 35.0723 57.8398 43.7754c19.8076 8.7041 42.6719 13.0566 68.6084 13.0566c42.3359 0 78.8633 -14.3359 109.584 -43.0078h0.495117l0.512695 -0.512695
c28.3359 -28.3359 42.5117 -65.0234 42.5117 -110.08c0 -10.2559 -0.864258 -20.9912 -2.55957 -32.2559c-5.45605 -30.3838 -18.96 -56.4961 -40.4482 -78.3359c-20.8164 -21.1514 -46.4004 -34.6562 -76.7998 -40.4482
c-11.2646 -1.69531 -21.8408 -2.54395 -31.7285 -2.54395c-47.792 0 -90.1279 18.5928 -126.992 55.792c-7.85547 7.85645 -17.4072 19.2959 -28.6719 34.3047l-49.1514 63.5039c-13.3125 17.7441 -22.1924 28.832 -26.624 33.2793
c-25.2646 25.2646 -50.6885 37.8887 -76.2881 37.8887c-7.50391 0 -14.3359 -1.02441 -20.4805 -3.07227c-9.9043 -2.73633 -19.2803 -8.52832 -28.1602 -17.4082c-9.90332 -10.9277 -16.0312 -23.04 -18.4316 -36.3516
c-1.02441 -4.76855 -1.53613 -9.55176 -1.53613 -14.3359c0 -19.4727 6.32031 -36.0166 18.9443 -49.6641l1.02344 -1.00781c13.3125 -13.6641 29.8721 -20.4805 49.6641 -20.4805c26.9766 0 52.0479 12.7998 75.2646 38.3838l43.0078 -56.3193l4.60742 -6.14453
c-19.4561 -20.832 -39.0879 -35.6641 -58.8799 -44.5439s-41.9834 -13.3281 -66.5596 -13.3281c-44.7041 0 -81.584 14.1602 -110.592 42.4961v0.496094c-21.5049 21.5205 -34.8164 47.6318 -39.9365 78.3359c-1.71191 8.54395 -2.55957 16.5762 -2.55957 24.0801z" />
    <glyph glyph-name="uniF129" unicode="&#xf129;" 
d="M64.832 185.856v52.7354c0 29.6963 14.6719 63.8242 44.0322 102.4c29.3594 38.5762 58.5439 65.8721 87.5518 81.9199c26.624 15.0078 58.5439 22.5283 95.7441 22.5283c15.0234 0 30.1279 -1.69629 45.3115 -5.12012
c15.1846 -3.42383 29.7764 -8.7041 43.7764 -15.8721s25.3438 -17.0566 34.0479 -29.6963c8.7041 -12.624 13.04 -27.1357 13.04 -43.5195c0 -4.43262 -0.335938 -8.62402 -1.00781 -12.5439c-0.688477 -3.9209 -1.8877 -8.0166 -3.58398 -12.2881
c-1.71191 -4.27246 -3.24805 -7.85645 -4.62402 -10.752c-1.36035 -2.89648 -3.74414 -6.48047 -7.15234 -10.752c-3.4082 -4.27246 -5.80762 -7.4248 -7.16797 -9.47266c-1.35938 -2.04785 -4.35156 -5.37598 -8.95996 -9.9834
c-4.62402 -4.6084 -7.43945 -7.50488 -8.44824 -8.7041c-1.00781 -1.2002 -4.17578 -4.17676 -9.4873 -8.95996c-5.28027 -4.76855 -8.27246 -7.50391 -8.94434 -8.19238h86c0.688477 -24.5762 1.02441 -43.0078 1.02441 -55.2959
c0 -86.3525 -7.16797 -142 -21.5039 -166.912c-11.9521 -20.8164 -28.0801 -39.248 -48.3848 -55.2959c-20.3037 -16.0479 -42.0801 -27.9844 -65.2793 -35.8242c-13.3125 -5.12012 -22.8643 -7.67969 -28.6729 -7.67969h-43.0078
c-1.02344 0 -9.21582 2.91211 -24.5918 8.7041c-40.96 18.0801 -61.4238 47.7754 -61.4238 89.0713c0 1.37598 0.0800781 3.24805 0.255859 5.64844s0.255859 4.0957 0.255859 5.10352c-45.7441 23.5684 -76.4639 60.2568 -92.1602 110.097
c-4.43164 14.3193 -6.63965 23.8721 -6.63965 28.6562v0zM139.584 252.416c0 -13.6484 1.63184 -27.4717 4.86426 -41.4717c3.23145 -14 8.11133 -27.4727 14.5918 -40.4482c6.47949 -12.9766 15.4404 -23.5684 26.8799 -31.7441
c11.4404 -8.17578 24.4961 -12.2881 39.1836 -12.2881c4.09668 0 10.832 2.56055 20.2246 7.66406c9.37598 5.12012 17.8242 7.67969 25.3438 7.67969c4.78418 0 13.4717 -1.79199 26.1123 -5.3916c12.6396 -3.56836 18.96 -6.91211 18.96 -9.96777
c0 -7.16797 -4.43262 -10.752 -13.3125 -10.752c-44.3672 0 -66.5596 -12.9766 -66.5596 -38.9287c0 -19.792 7.15234 -34.7354 21.5039 -44.7998c14.3516 -10.0635 31.9043 -15.0879 52.7363 -15.0879c16.0479 0 31.7275 2.81641 47.1035 8.43164
c15.3438 5.63281 27.8086 14.0801 37.376 25.3447c14.3359 17.0557 21.5039 45.0557 21.5039 83.9678c0 6.47949 -0.175781 15.9521 -0.511719 28.4004c-0.335938 12.4639 -0.511719 21.7598 -0.511719 27.9199c0 16.3838 0.863281 30.0312 2.55957 40.96h-98.8154
c-0.335938 -2.73633 -0.512695 -6.65625 -0.512695 -11.7764c0 -3.74414 0.176758 -9.55176 0.512695 -17.4082c0.335938 -7.85547 0.511719 -13.8232 0.511719 -17.9199c0 -11.9521 -1.36035 -21.5039 -4.1123 -28.6719
c-1.67969 -0.335938 -4.5918 -0.496094 -8.6875 -0.496094c-16.3848 0 -30.0479 5.53613 -40.9766 16.624c-10.9277 11.0879 -18.4316 23.8086 -22.5273 38.1445c-4.09668 14.3359 -6.16016 29.5518 -6.16016 45.5996c0 15.3604 1.95215 30.8965 5.8877 46.5918
c3.91992 15.6963 11.2637 30.0322 22.0156 43.0078c10.752 12.9766 23.9844 19.4561 39.6641 19.4561c3.4248 0 7.00879 -0.511719 10.752 -1.53613c-1.35938 -7.50391 -2.03125 -13.3115 -2.03125 -17.4072c0 -11.9521 3.23145 -21.8398 9.71191 -29.6963
c6.47949 -7.85645 15.5361 -11.7764 27.1514 -11.7764c11.6162 0 21.3281 3.91992 29.168 11.7764c7.85645 7.85645 11.7764 17.7441 11.7764 29.6963c0 14 -5.28027 25.9521 -15.8721 35.8398c-10.5596 9.9043 -22.5283 16.7197 -35.8398 20.4795
c-13.2959 3.76074 -26.7842 5.63281 -40.4316 5.63281c-46.0801 0 -84.1445 -14.5127 -114.177 -43.5205c-30.0312 -29.0078 -45.0557 -66.3838 -45.0557 -112.128z" />
    <glyph glyph-name="uniF148" unicode="&#xf148;" 
d="M24.832 215.552c0 41.6484 10.1602 80.208 30.4639 115.712c20.3203 35.5039 47.8721 63.5684 82.6885 84.2246c34.8154 20.6553 72.8799 30.9756 114.176 30.9756c62.7998 0 116.479 -22.5283 161.008 -67.584c44.5596 -45.0557 66.832 -99.5039 66.832 -163.328
c0 -40.624 -9.72754 -78.2402 -29.1836 -112.896c-19.4561 -34.6562 -45.7285 -62.3682 -78.8643 -83.2002c0.335938 -0.671875 0.959961 -1.79199 1.80762 -3.32812c0.848633 -1.53613 2.81641 -4.27148 5.87207 -8.19238
c3.07227 -3.93555 6.65625 -7.67969 10.752 -11.2637c4.09668 -3.58398 9.72852 -7.24805 16.9121 -11.0078c7.15234 -3.74414 14.8477 -6.65625 23.0244 -8.68848v-38.9277c-12.2881 -2.38379 -23.7119 -3.58398 -34.3047 -3.58398
c-17.0713 0 -31.584 3.05566 -43.5195 9.21582c-19.1201 9.88867 -34.6562 25.9365 -46.5918 48.1279c-16.3848 -4.43164 -34.3203 -6.65527 -53.7607 -6.65527c-40.96 0 -78.9277 10.3193 -113.92 30.9756c-34.9912 20.6562 -62.6396 48.6396 -82.9434 83.9678
c-20.2881 35.3281 -30.4482 73.8086 -30.4482 115.456zM137.984 185.344c0 -39.5996 11.3438 -73.4717 34.0479 -101.632c22.6875 -28.1602 50.0801 -42.2559 82.1758 -42.2559c8.87988 0 17.7441 1.37598 26.624 4.0957
c-0.688477 1.02441 -1.63184 2.48047 -2.81641 4.35254c-1.18359 1.87207 -3.66406 5.02344 -7.43945 9.47168c-3.74414 4.43164 -7.74414 8.44824 -12.0322 12.0322c-4.27148 3.58398 -9.55176 6.92773 -15.8555 9.9834
c-6.32031 3.07227 -12.5449 4.78418 -18.6885 5.12012v45.0566c3.4082 0.335938 6.81641 0.496094 10.2402 0.496094c40.624 0 75.2637 -15.3604 103.936 -46.0801c21.5039 27.6475 32.2559 60.7676 32.2559 99.3271v59.3926c0 39.5996 -11.3438 73.4717 -34.0312 101.632
c-22.7207 28.1602 -50.0967 42.2402 -82.1924 42.2402c-32.0801 0 -59.4717 -14.0801 -82.1758 -42.2402s-34.0479 -62.0322 -34.0479 -101.632v-59.3604z" />
    <glyph glyph-name="uniF152" unicode="&#xf152;" 
d="M-16 226.048c0 41.4717 15.8721 77.2324 47.6162 107.264c19.792 18.7686 42.5762 31.5684 68.3516 38.4004c25.7764 6.83203 51.8887 6.57617 78.3359 -0.767578c26.4482 -7.34473 49.9199 -21.7607 70.4004 -43.2646c15.0078 -15.6953 25.6797 -33.9678 32 -54.7832
c6.32031 -20.8164 8.87988 -40.5449 7.66406 -59.1367c-1.18457 -18.6074 -5.18457 -36.0957 -12.0322 -52.4795c-6.47949 -14 -6.99219 -29.8721 -1.53613 -47.6318c5.47266 -17.7441 12.2881 -32.8486 20.4805 -45.3125
c8.19141 -12.4482 16.8154 -24.1436 25.8555 -35.0557c9.02441 -10.9287 13.5684 -16.5605 13.5684 -16.9121l-5.63184 4.62402c-3.42383 3.4082 -7.08789 6.91211 -11.0078 10.4795c-3.9209 3.56836 -9.2002 7.93652 -15.8564 13.0566
c-6.65625 5.10352 -13.1523 9.72754 -19.4717 13.8232c-6.32031 4.09668 -13.5684 8.35254 -21.7607 12.8008c-8.19141 4.44727 -15.8721 7.59961 -23.04 9.47168s-14.7676 3.15234 -22.7832 3.83984c-8.0166 0.671875 -15.2803 -0.511719 -21.7607 -3.58398
c-16.0312 -6.49609 -33.6953 -9.9043 -52.9912 -10.2559c-19.2803 -0.335938 -39.248 3.4082 -59.9043 11.2637c-20.6562 7.85645 -38.1445 19.6318 -52.4805 35.3281c-29.3438 31.1045 -44.0156 67.3604 -44.0156 108.832zM51.584 236.032
c-3.07227 -23.5518 2.63965 -44.7998 17.1523 -63.7441c14.5117 -18.9443 33.5361 -29.9365 57.0879 -33.0078c23.5518 -3.07227 44.7197 2.63965 63.4873 17.1357c18.7686 14.5117 29.6963 33.5518 32.7686 57.0879c3.07227 23.5518 -2.56055 44.7197 -16.8965 63.4883
c-14.3359 18.7676 -33.2793 29.6963 -56.832 32.7676c-23.5518 3.07227 -44.7998 -2.55957 -63.7432 -16.8955c-18.9443 -14.3359 -29.9521 -33.2803 -33.0244 -56.832zM296.32 386.56c7.16797 20.1289 19.8076 35.0723 37.9033 44.8008
c18.0801 9.72754 37.376 11.1836 57.8408 4.35156c19.792 -6.14355 34.5596 -18.4316 44.2871 -36.8643c9.72852 -18.4316 11.1846 -38.2236 4.35254 -59.3916c-8.19238 -24.5762 -27.6484 -42.3203 -58.3525 -53.248c-10.5918 -3.75977 -20.0635 -9.47168 -28.416 -17.1523
c-8.35156 -7.67969 -14.2559 -14.1592 -17.6631 -19.4561c-3.4082 -5.2959 -7.34473 -12.208 -11.7764 -20.7354c7.53613 32.0801 3.42383 59.2158 -12.2881 81.4082c-18.7842 27.3115 -24.0801 52.7354 -15.8877 76.2871zM315.776 133.12
c0.6875 31.4082 11.4395 57.8555 32.2559 79.3604c20.8154 21.5039 46.7676 32.2559 77.8242 32.2559c30.3672 0 56.3359 -10.4961 77.8232 -31.4883c21.4883 -20.9922 32.2559 -47.6963 32.2559 -80.1279c0 -37.5684 -18.7832 -70.832 -56.3193 -99.8398
c-12.9766 -9.9043 -23.5684 -22.0166 -31.7441 -36.3359c-8.19238 -14.3359 -13.4082 -25.9521 -15.6318 -34.832c-2.22461 -8.87988 -4.33594 -20.3047 -6.38379 -34.3047c-1.36035 13.6641 -3.07227 25.0889 -5.12012 34.3047s-7.16797 21.0713 -15.3604 35.584
c-8.19238 14.5117 -19.2803 27.0557 -33.2803 37.6475c-37.8721 28.3203 -56.6553 60.9121 -56.3193 97.7764zM335.232 374.784c-3.76074 -9.21582 -3.66406 -18.5117 0.255859 -27.9043c3.91992 -9.3916 10.4961 -15.9678 19.7119 -19.7119
c9.2002 -3.75977 18.416 -3.75977 27.6475 0c9.2168 3.74414 15.6963 10.2402 19.4727 19.4561c3.74414 9.55176 3.74414 18.9443 0 28.1602c-3.77637 9.21582 -10.2559 15.6963 -19.4727 19.4561c-9.21582 3.74414 -18.5117 3.74414 -27.9033 0
c-9.37598 -3.75977 -15.9521 -10.2402 -19.7119 -19.4561zM369.28 111.36c6.31934 -15.5361 17.5039 -26.7041 33.5361 -33.5361c15.6953 -6.48047 31.4072 -6.40039 47.1035 0.255859s26.7998 17.8242 33.2803 33.5518c6.47949 15.6797 6.47949 31.3125 0 46.8486
c-6.48047 15.5352 -17.5684 26.6875 -33.2803 33.5195c-15.6963 6.48047 -31.4082 6.48047 -47.1035 0c-15.6807 -6.48047 -26.7842 -17.584 -33.2803 -33.2803c-6.49609 -16.0312 -6.56055 -31.8232 -0.255859 -47.3594z" />
    <glyph glyph-name="uniF144" unicode="&#xf144;" 
d="M-36.3359 270.848c-2.56055 73.3926 -0.608398 119.473 5.8877 138.24c1.36035 3.07227 2.97656 5.71191 4.84863 7.93652c1.87207 2.22363 4.27148 4.35156 7.16797 6.39941c2.91211 2.04785 5.21582 3.66406 6.91211 4.86426
c1.71191 1.2002 4.6875 2.89551 8.95996 5.12012c4.27148 2.22363 7.08789 3.66406 8.46387 4.35156c46.416 0 112.304 0.335938 197.632 1.02441c85.3281 0.6875 141.472 1.02344 168.448 1.02344h48.1279s9.40723 -0.0800781 28.1758 -0.255859
c18.7676 -0.175781 28.416 -0.607422 28.9277 -1.2793c0.511719 -0.688477 8.19238 -1.71289 23.04 -3.07227c14.8477 -1.36035 20.3838 -3.07227 16.6406 -5.12012c5.47168 -3.07227 10.0635 -7.16797 13.8076 -12.2881
c3.75977 -5.12012 6.57617 -10.1436 8.44824 -15.1035c1.8877 -4.96094 3.15137 -11.7764 3.83984 -20.4805c0.671875 -8.7041 1.00781 -15.8721 1.00781 -21.5039s-0.0800781 -14.1602 -0.255859 -25.6006c-0.175781 -11.4238 -0.255859 -19.8877 -0.255859 -25.3438
c0 -70.6562 -3.93652 -126.464 -11.7764 -167.408c-7.83984 -40.9756 -24.2402 -77.3115 -49.1523 -109.056c-23.8877 -30.0322 -51.9678 -53.8398 -84.2236 -71.4238s-65.1836 -28.2559 -98.8164 -32c-33.6318 -3.75977 -67.7598 -1.8877 -102.399 5.63184
c-34.6396 7.52051 -66.4639 20.0479 -95.4883 37.6484c-29.0078 17.5674 -54.7842 40.2881 -77.3115 68.0957c-22.5283 27.8076 -38.9121 58.7842 -49.1523 92.9277c-5.12012 17.7119 -8.94434 63.2803 -11.5039 136.672zM82.1758 271.872
c-8.87988 -9.56836 -6.31934 -24.832 7.68066 -45.8242s31.7432 -42.0801 53.2471 -63.2314c0.688477 -0.688477 7.4248 -7.50488 20.2246 -20.4648c12.7998 -12.9756 21.9355 -21.8398 27.3916 -26.624c5.45605 -4.7832 13.4883 -10.8477 24.0645 -18.1914
c10.5918 -7.34375 20.3193 -12.1924 29.1836 -14.5918c3.74414 -1.00879 7.60059 -1.53613 11.5205 -1.53613c3.93555 0 7.26367 0.175781 9.9834 0.511719c2.75195 0.335938 6.06445 1.45605 10 3.32812c3.91992 1.87207 6.65625 3.15234 8.19238 3.83984
c1.53613 0.688477 4.19238 2.63965 7.93555 5.87207c3.74414 3.24805 5.79199 5.02441 6.14453 5.37598c0.351562 0.352539 2.38379 2.22363 6.14355 5.64844l1.53613 1.53516c3.07227 3.07227 13.4082 12.6406 30.9922 28.6729
c17.584 16.0479 32.2725 29.7754 44.0322 41.2158c11.7598 11.4395 23.2959 24.9277 34.5596 40.4482c11.2646 15.5195 17.2324 28.416 17.9199 38.6553c-5.12012 13.6484 -11.6162 23.2002 -19.4717 28.6719c-7.83984 5.45605 -16.4639 6.91211 -25.8398 4.35254
c-9.39258 -2.56055 -18.9443 -7.00781 -28.6719 -13.3125c-9.72852 -6.31934 -19.792 -14.5117 -30.208 -24.5752c-10.416 -10.0645 -19.9688 -19.6328 -28.6885 -28.6729c-8.6875 -9.04004 -17.1357 -17.7432 -25.3438 -26.1113
c-8.19238 -8.36816 -14.4961 -13.9199 -18.9443 -16.6562c-9.21582 5.47168 -21.584 15.6318 -37.1201 30.4639c-15.5361 14.8477 -29.5195 28.8477 -41.9834 41.9844c-12.4639 13.1357 -25.0078 24.0635 -37.6318 32.7676
c-12.6406 8.7041 -22.0166 11.1846 -28.1602 7.42383c-8.54395 -5.10352 -18.0967 -12.0957 -28.6885 -20.9756z" />
    <glyph glyph-name="uniF101" unicode="&#xf101;" 
d="M-19.9238 59.8457c1.68164 2.70605 4.37402 2.85254 8.08887 0.49707c84.2168 -48.8594 175.865 -73.2744 274.9 -73.2744c66.0186 0 131.219 12.2881 195.584 36.8789c1.66797 0.672852 4.11035 1.68164 7.31445 3.02734
c3.18945 1.36133 5.4707 2.34082 6.81738 3.04297c5.06152 2.01855 9.01074 0.995117 11.8779 -3.04297c2.85254 -4.02246 1.93066 -7.73828 -2.7793 -11.1172c-6.04199 -4.38867 -13.8096 -9.43555 -23.2305 -15.1553
c-28.9502 -17.1738 -61.3232 -30.501 -97.0605 -39.9209c-35.6934 -9.4502 -70.5537 -14.1611 -104.594 -14.1611c-52.5459 0 -102.254 9.18652 -149.065 27.5459c-46.8262 18.3584 -88.7812 44.1924 -125.835 77.5752c-2.01855 1.66797 -3.04297 3.34961 -3.04297 5.07617
c0 0.995117 0.336914 2.00391 1.02441 3.02832zM132.169 203.864c0 23.2441 5.73438 43.125 17.1885 59.6406c11.4541 16.501 27.1221 28.9639 46.9873 37.3906c18.1836 7.75293 40.6084 13.3115 67.2178 16.6758c9.09961 1.00977 23.9326 2.35547 44.457 4.05273v8.57227
c0 21.5625 -2.35547 36.0449 -7.06641 43.4609c-7.06543 10.1084 -18.1826 15.1553 -33.3379 15.1553h-4.03809c-11.1318 -1.00879 -20.7285 -4.54883 -28.8027 -10.6201c-8.08984 -6.07031 -13.3125 -14.4824 -15.668 -25.2637
c-1.3457 -6.74316 -4.72461 -10.6201 -10.1084 -11.6299l-58.1338 7.08105c-5.73438 1.3457 -8.58691 4.3877 -8.58691 9.09863c0 1.00879 0.161133 2.19434 0.49707 3.54004c5.73438 29.9736 19.793 52.209 42.2041 66.7061s48.5957 22.5723 78.584 24.2539h12.625
c38.415 0 68.418 -9.93262 89.9512 -29.8271c3.34961 -3.36426 6.46582 -6.99219 9.3623 -10.8545c2.85254 -3.87695 5.12012 -7.31445 6.80176 -10.3574c1.69727 -3.02734 3.21875 -7.40137 4.5498 -13.1357c1.36035 -5.73438 2.37012 -9.68457 3.04297 -11.8789
c0.6875 -2.17969 1.18457 -6.9043 1.52148 -14.1455c0.350586 -7.25586 0.49707 -11.542 0.49707 -12.8877v-122.295c0 -8.7627 1.25781 -16.7646 3.78906 -24.0059c2.53027 -7.24121 4.97363 -12.4775 7.34375 -15.667c2.35449 -3.20312 6.23145 -8.32324 11.6289 -15.418
c2.00488 -3.04297 3.02832 -5.73535 3.02832 -8.08984c0 -2.7207 -1.36035 -5.04688 -4.03711 -7.06543c-27.9697 -24.2549 -43.125 -37.3906 -45.4805 -39.4102c-4.05176 -3.02734 -8.90918 -3.36426 -14.6582 -1.00879c-4.70996 4.03711 -8.83496 7.91406 -12.375 11.6445
c-3.54004 3.68555 -6.07129 6.39258 -7.57812 8.07422c-1.52148 1.68262 -3.96387 4.97363 -7.3584 9.8457c-3.34961 4.88574 -5.70508 8.17676 -7.05078 9.84473c-18.8564 -20.5381 -37.4053 -33.3389 -55.5889 -38.3857
c-11.4541 -3.36426 -25.6143 -5.06152 -42.4521 -5.06152c-25.9355 0 -47.25 8.00195 -63.9414 24.0205c-16.6758 15.9893 -25.0146 38.6484 -25.0146 67.9502zM219.092 213.957c0 -13.1211 3.29199 -23.6689 9.86035 -31.5977
c6.56738 -7.89941 15.418 -11.8779 26.5361 -11.8779c1.00879 0 2.42773 0.175781 4.28613 0.511719c1.85742 0.336914 3.11523 0.498047 3.80273 0.498047c14.1465 3.7002 25.0889 12.7998 32.8564 27.2969c3.70117 6.40723 6.46582 13.3848 8.30859 20.9619
c1.87305 7.57812 2.86719 13.7363 3.04297 18.4473c0.175781 4.70996 0.249023 12.4629 0.249023 23.2441v12.6396c-19.5293 0 -34.3779 -1.3457 -44.457 -4.03809c-29.666 -8.39648 -44.4854 -27.1064 -44.4854 -56.0859zM431.309 51.2588
c0.6875 1.3457 1.69727 2.70605 3.05762 4.03711c8.42578 5.70508 16.501 9.61133 24.2686 11.6152c12.7852 3.36426 25.249 5.2373 37.3906 5.54395c3.36523 0.322266 6.58301 0.175781 9.59668 -0.49707c15.1406 -1.3457 24.2539 -3.87695 27.2969 -7.57812
c1.3457 -2.01855 2.01855 -5.04688 2.01855 -9.08398v-3.54004c0 -11.8057 -3.21777 -25.6875 -9.59668 -41.7061c-6.40723 -16.0186 -15.3301 -28.8916 -26.7842 -38.6484c-1.68262 -1.36035 -3.21875 -2.04785 -4.5498 -2.04785
c-0.672852 0 -1.375 0.189453 -2.0332 0.526367c-2.0332 0.995117 -2.53125 2.85254 -1.52148 5.55859c12.4492 29.2861 18.6807 49.6787 18.6807 61.1182c0 3.71582 -0.658203 6.40723 -2.01855 8.11914c-3.36523 4.02246 -12.7998 6.04102 -28.292 6.04102
c-5.73438 0 -12.4922 -0.321289 -20.2168 -1.00879c-8.44043 -0.995117 -16.1641 -1.98926 -23.2734 -2.99902c-2.01953 0 -3.36523 0.322266 -4.05273 1.00977c-0.643555 0.658203 -0.833984 1.33105 -0.482422 1.98926
c0.0292969 0.350586 0.219727 0.87793 0.511719 1.55078z" />
    <glyph glyph-name="uniF106" unicode="&#xf106;" 
d="M40.208 212.992c2.38379 28.3359 9.8877 52.0479 22.5117 71.168c13.3125 20.1436 29.6162 35.9199 48.9121 47.3594c19.2803 11.4404 38.832 17.1523 58.624 17.1523c13.9844 0 31.3125 -3.66406 51.9678 -11.0078c20.6562 -7.34375 36.0801 -11.0078 46.3359 -11.0078
c9.53613 0 24.1289 3.66406 43.7607 11.0078s37.6475 11.0078 54.0156 11.0078c17.7441 0 35.3281 -4.60742 52.7363 -13.8242c17.4082 -9.21582 32.6074 -22.0156 45.584 -38.3994c-16.7363 -9.21582 -30.1279 -21.248 -40.208 -36.0967
c-10.0801 -14.8477 -15.7764 -30.4639 -17.1367 -46.8477v-12.2881c-0.351562 -11.9521 1.18457 -23.9043 4.59277 -35.8398c4.43164 -16.0322 12.624 -30.5439 24.5762 -43.5195c11.9512 -12.9766 26.4639 -22.7041 43.5195 -29.1846
c-11.5996 -24.9277 -22.6885 -45.584 -33.2803 -61.9521c-14.6719 -21.8398 -29.168 -39.584 -43.5039 -53.248s-29.8721 -20.6553 -46.5918 -20.9912c-9.91992 0 -22.8799 3.74316 -38.9277 11.2637c-15.3604 6.81543 -30.8965 10.2402 -46.5928 10.2402h-2.04785
c-16.0312 0 -32.2559 -3.58398 -48.6396 -10.752s-29.6963 -10.752 -39.9355 -10.752c-28.3369 0.335938 -57.6807 23.7275 -88.0645 70.1436c-19.4561 29.6963 -33.6162 61.1035 -42.4961 94.208c-6.83203 25.9521 -10.2402 50.5117 -10.2402 73.7275
c0 6.14453 0.176758 12.2881 0.52832 18.4326zM252.688 345.088c-1.02441 5.12012 -1.55273 10.2402 -1.55273 15.3604c0 22.1914 9.04004 44.208 27.1367 66.0479c9.21582 11.2637 21.0713 20.8154 35.5996 28.6719c14.4961 7.83984 28.5762 12.2881 42.2236 13.3125
c0.688477 -5.12012 1.02441 -10.2402 1.02441 -15.3604c0 -23.5518 -8.52832 -46.0801 -25.6006 -67.584c-9.56738 -12.2881 -21.5039 -22.1924 -35.8398 -29.6963c-14 -7.51953 -27.6641 -11.0879 -40.9756 -10.752h-2.01562z" />
    <glyph glyph-name="uniF132" unicode="&#xf132;" 
d="M-20.0322 -65.0244v512h131.584v-189.951h117.248c29.0078 41.9834 72.8799 105.312 131.584 189.951h146.433l-167.937 -244.224c0 -4.0957 16.4639 -28.4961 49.4082 -73.2158s65.792 -88.4004 98.5596 -131.056l49.1523 -63.5049h-175.632
c-16.0322 22.5283 -40.4326 56.5928 -73.2002 102.16c-32.7676 45.5684 -57.1836 79.7764 -73.2158 102.656h-102.4v-204.816h-131.584z" />
    <glyph glyph-name="uniF151" unicode="&#xf151;" 
d="M54.5918 -72.1924v213.504l38.9121 -0.511719l-1.53613 -171.52h256.513v171.008h40.4473v-212.464h-334.336v-0.0166016zM117.568 39.9355h200.704v-42.4951h-200.704v42.4951zM118.08 73.2158l4.0957 43.5205l201.216 -19.4561l-4.0957 -43.5361zM128.832 161.776
l11.7764 42l194.56 -54.7686l-12.3037 -42zM165.184 264.704l22.5283 37.376l173.072 -104.448l-23.0566 -37.376zM250.688 369.664l35.3271 25.5996l117.761 -164.352l-35.8408 -25.6006zM379.712 432.64l43.0078 7.16797l33.2803 -199.168l-43.0078 -7.16797z" />
    <glyph glyph-name="uniF113" unicode="&#xf113;" 
d="M38.1436 -55.2959v489.984c41.2969 7.16797 91.9844 10.752 152.064 10.752c47.792 0 87.9844 -4.09668 120.592 -12.2881c32.5918 -8.19238 60.832 -21.3281 84.7197 -39.4248c56.3203 -42.6719 84.4805 -105.808 84.4805 -189.439
c0 -88.752 -27.4883 -156.16 -82.416 -202.24c-50.5283 -43.0078 -127.504 -64.5117 -230.928 -64.5117c-48.8164 0 -91.6484 2.38379 -128.513 7.16797zM150.784 27.6641c6.47949 -1.37598 19.6318 -2.06445 39.4238 -2.06445h2.04785
c52.2246 0 93.1846 14.5127 122.88 43.5361c30.3682 29.3447 45.5684 73.0244 45.5684 131.072c0 52.5596 -13.9043 92.1602 -41.7119 118.784c-27.8398 26.6074 -66.832 39.9199 -117.008 39.9199c-22.5283 0 -39.6006 -1.53613 -51.2002 -4.6084v-326.64z" />
    <glyph glyph-name="uniF11F" unicode="&#xf11f;" 
d="M-70.1602 128.512h60.9277c1.71289 -13.6641 6.73633 -24.5762 15.1045 -32.7676c8.36816 -8.19238 19.376 -12.3037 33.0244 -12.3037c16.3838 0 29.4395 5.55176 39.168 16.6396c9.72754 11.0879 14.5918 24.9922 14.5918 41.7275
c0 16.3848 -4.78418 29.8564 -14.3359 40.4482c-9.56836 10.5762 -22.3525 15.8564 -38.4004 15.8564c-12.9756 0 -24.0635 -4.17676 -33.2803 -12.5439c-9.21582 -8.36816 -17.9199 -12.5439 -26.1113 -12.5439c-18.0801 0 -31.7441 0.335938 -40.96 1.00781
c3.07129 17.7441 7.93555 45.1357 14.5918 82.1758c6.65625 37.0244 11.5195 65.1035 14.5918 84.2236h168.96v-50.1758h-124.4c-4.7832 -24.2402 -8.87988 -47.1035 -12.2871 -68.6074h1.53516c5.80859 7.16797 14.416 12.6396 25.8564 16.3838
c11.4404 3.75977 22.624 5.63184 33.5361 5.63184c38.5762 0 65.8721 -17.584 81.9199 -52.7363c8.19238 20.4805 20.4795 36.5283 36.8643 48.1279c16.3838 11.6162 35.3281 17.4082 56.832 17.4082c16.7197 0 32.2559 -3.32812 46.6074 -9.9834
c14.3359 -6.65625 25.6006 -13.7441 33.7764 -21.248c8.17578 -7.50488 18.9443 -18.7686 32.2559 -33.792c1.02441 -1.02441 1.80762 -1.87207 2.32031 -2.56055c0.511719 -0.6875 1.18359 -1.45605 2.04785 -2.30371l2.30371 -2.30371
c11.9678 13.6631 20.4961 23.1191 25.6162 28.416c5.12012 5.2959 12.9756 12.208 23.5518 20.7354c10.5918 8.54395 21.168 14.416 31.7441 17.6641s22.4961 4.91211 35.8076 4.91211c30.7207 0 55.4727 -10.3359 74.2402 -30.9756
c18.7686 -20.6406 28.1602 -46.5127 28.1602 -77.5684c0 -31.7285 -9.4082 -58.3525 -28.1758 -79.8564c-18.7686 -21.5195 -43.8564 -32.2715 -75.2646 -32.2715c-39.5996 0 -78.1592 22.3516 -115.712 67.0723c-2.36719 -2.40039 -9.02344 -8.97656 -19.9678 -19.7119
c-10.9121 -10.7529 -18.1602 -17.5049 -21.7441 -20.2246c-3.59961 -2.73633 -9.90332 -7.08789 -18.9434 -13.0557s-17.9199 -9.9043 -26.624 -11.7764c-8.7207 -1.87207 -18.5283 -2.81543 -29.4404 -2.81543c-21.5039 0 -40.4482 5.63184 -56.832 16.9111
c-16.3838 11.248 -29.0078 26.9766 -37.8877 47.0889c-21.168 -43.6963 -55.8086 -65.5361 -103.952 -65.5361c-32.416 0 -59.1357 8.11133 -80.1279 24.3193s-31.4883 39.8564 -31.4883 70.9121zM193.52 143.872c0 -14.3359 4.35254 -25.9365 13.0566 -34.8164
s20.2236 -13.3115 34.5596 -13.3115c25.6162 0 52.0479 16.208 79.3604 48.624c-11.5996 11.9521 -19.792 20.2402 -24.5605 24.8477c-4.7832 4.6084 -12.9111 10.2402 -24.3359 16.8965c-11.4395 6.65527 -22.2715 9.9834 -32.5117 9.9834
c-13.3115 0 -24.2402 -5.2959 -32.7676 -15.8721c-8.52832 -10.5752 -12.8008 -22.6875 -12.8008 -36.3516zM392.688 143.872c9.21582 -9.9043 16.9912 -17.6641 23.3115 -23.2959c6.32031 -5.64844 14.6562 -11.168 25.0723 -16.6406
c10.416 -5.47168 20.9121 -8.19141 31.4873 -8.19141c14.6885 0 26.208 4.6875 34.5605 14.0801c8.36816 9.3916 12.5439 21.4238 12.5439 36.0957c0 14.3359 -4.35254 26.2881 -13.04 35.8242c-8.71973 9.56738 -20.2402 14.3359 -34.5596 14.3359
c-8.52832 0 -16.9121 -1.96777 -25.0889 -5.8877c-8.19141 -3.93652 -14.416 -7.60059 -18.6875 -11.0088c-4.28809 -3.42383 -10.6719 -9.56738 -19.2002 -18.4316s-14 -14.4795 -16.3994 -16.8799z" />
    <glyph glyph-name="uniF158" unicode="&#xf158;" 
d="M29.8398 127.488c0 49.8232 16.208 93.0078 48.6406 129.552c36.1914 40.2881 81.584 60.416 136.191 60.416c23.2002 0 44.5439 -3.58398 64 -10.752c-7.83984 -16.0322 -12.4482 -30.7197 -13.8242 -44.0322c-16.0312 6.48047 -32.752 9.72852 -50.1758 9.72852
c-37.8877 0 -70.4795 -14.1602 -97.792 -42.4961c-27.2959 -29.0244 -40.96 -63.4883 -40.96 -103.424c0 -26.2881 6.32031 -50.5283 18.9443 -72.7207c11.9355 -21.8398 28.6719 -39.0557 50.1758 -51.6953c20.832 -12.2881 44.0322 -18.416 69.6318 -18.416
c24.9121 0 47.9521 6.11133 69.1201 18.416c21.168 11.9512 38.0479 29.1836 50.6885 51.6953c12.2871 22.5283 18.416 46.7842 18.416 72.7207c0 21.4873 -3.74414 40.9434 -11.248 58.3516c15.3594 3.07227 29.8555 8.86426 43.5195 17.4082
c9.21582 -23.2002 13.8242 -48.1279 13.8242 -74.752c0 -50.8643 -17.248 -94.7207 -51.7119 -131.584c-34.4639 -37.5527 -78.6719 -56.3203 -132.608 -56.3203c-54.2715 0 -98.6396 18.7676 -133.12 56.3203c-34.4795 37.5518 -51.7119 81.4072 -51.7119 131.584z
M173.2 -2.04785l8.17578 3.58398c5.45605 2.73633 12.4482 7.58398 20.9922 14.5918c8.54395 6.99219 17.8398 15.7764 27.9043 26.3682c10.0635 10.5762 19.8711 25.168 29.4395 43.7764c9.55176 18.5918 18 39.3271 25.3438 62.208
c7.32812 22.8633 12.5605 51.376 15.6162 85.5039c1.71191 17.0557 2.56055 34.4795 2.56055 52.2236c-0.335938 18.4316 -1.18457 37.5518 -2.56055 57.3438l2.56055 6.65625c1.71191 4.44824 2.71973 10.416 3.05566 17.9199v3.58398
c0 6.48047 -0.671875 13.1357 -2.03223 19.9678c-1.71191 8.19238 -6.49609 17.2324 -14.3359 27.1367c-8.19238 9.56738 -18.9443 17.7432 -32.2559 24.5752l5.63184 -8.70312c3.4082 -5.45605 8.78418 -16.8965 16.1279 -34.3047s14.7686 -37.7119 22.2881 -60.9277
l4.5918 -12.7998c2.75195 -8.52832 5.39258 -20.2246 7.93652 -35.0723c2.55957 -14.8477 4.7041 -31.6641 6.39941 -50.4316c0.688477 -6.48047 1.02441 -13.3125 1.02441 -20.4805c0 -13.3115 -1.02441 -26.9756 -3.07227 -40.96
c-3.07227 -21.8398 -8.35156 -43.3604 -15.8555 -64.5117c-7.52051 -21.168 -19.8887 -42.3359 -37.1201 -63.4883c-17.248 -21.168 -38.4805 -39.7764 -63.7441 -55.8076zM314 324.096c1.37598 13.6641 5.2959 24.5762 11.7764 32.7686l9.21582 12.7998
c4.0957 4.78418 10.752 9.31152 19.9678 13.5684c9.21582 4.25586 17.4082 7.42383 24.5596 9.47168l10.7529 3.07227c12.3037 2.73535 23.6631 8.7041 34.0635 17.9199s17.8242 17.9199 22.2725 26.1113l6.65527 11.7764c14 -19.4561 22.3525 -41.4717 25.0879 -66.0479
c1.36035 -10.9277 1.87207 -20.6562 1.53613 -29.1846c0 -11.5996 -1.00781 -21.6631 -3.07129 -30.208l-5.63281 -23.04c-4.0957 -11.2637 -9.80762 -21.5039 -17.1514 -30.7197s-13.5684 -15.5361 -18.6885 -18.9434l-7.67969 -5.63281
c-11.5996 -6.81543 -23.0244 -10.2393 -34.2881 -10.2393l-55.8076 27.1357c19.7754 10.9277 37.0234 22.0156 51.6953 33.2803c14.6719 11.2637 25.5205 21.0713 32.5127 29.4395c7.00781 8.36816 12.624 15.9678 16.9121 22.7842
c4.25586 6.81641 6.71973 12.1123 7.40723 15.8721l1.02441 5.12012c-6.16016 -13.6641 -14.416 -26.1123 -24.8477 -37.376c-10.4004 -11.2646 -20.9922 -20.1445 -31.7285 -26.624c-10.7363 -6.48047 -21.0723 -12.0322 -30.9922 -16.6406
c-9.8877 -4.60742 -17.9033 -7.75977 -24.0635 -9.47168l-9.21582 -2.55957c-8.52832 15.0078 -12.7842 28.4961 -12.7842 40.4473c0.015625 1.69629 0.175781 3.4082 0.511719 5.12012z" />
    <glyph glyph-name="uniF153" unicode="&#xf153;" 
d="M-79.7441 252.416c0 18.7676 6.57617 34.8164 19.7119 48.1279c13.1357 13.3125 29.1045 19.9678 47.8721 19.9678c16.0322 0 30.2881 -5.04004 42.752 -15.1035c12.4639 -10.0645 20.3838 -22.7842 23.8086 -38.1445l257.023 -103.424
c10.9277 6.48047 22.5283 9.71191 34.832 9.71191c0.671875 0 1.77637 -0.0800781 3.3125 -0.255859c1.53516 -0.175781 2.81543 -0.255859 3.83984 -0.255859l56.3193 81.3916c0.336914 24.9287 9.4082 46.1602 27.1523 63.7441s39.0557 26.3682 64 26.3682
c25.248 0 46.752 -8.87988 64.4961 -26.624s26.624 -39.2314 26.624 -64.4795s-8.87988 -46.752 -26.624 -64.5127c-17.7441 -17.7441 -39.248 -26.624 -64.4961 -26.624l-87.04 -63.5039c-1.69629 -17.4082 -9.04004 -32 -22.0156 -43.7754
c-12.9766 -11.7607 -28.1602 -17.6641 -45.5684 -17.6641c-16.3838 0 -30.7197 5.12012 -43.0078 15.3594c-12.2881 10.2402 -20.1445 23.04 -23.5518 38.3838l-257.04 102.944c-10.9287 -6.47949 -22.5283 -9.72754 -34.8164 -9.72754
c-18.7676 0 -34.7363 6.65527 -47.8721 19.9678c-13.1357 13.3115 -19.7119 29.3604 -19.7119 48.1279zM-61.8242 252.416c0 -13.6484 4.86426 -25.3438 14.5918 -35.0723c9.72852 -9.72754 21.4248 -14.5918 35.0723 -14.5918c3.07227 0 6.65625 0.335938 10.752 1.02441
l-20.9922 8.19141v0.512695c-9.55176 4.43164 -16.3838 11.5996 -20.4795 21.5039c-2.04785 4.7832 -3.07227 9.55176 -3.07227 14.3359c0 5.12012 1.02441 10.2393 3.07227 15.3594c4.0957 10.2402 10.9277 17.4082 20.4795 21.5039
c5.12012 2.38477 10.416 3.4082 15.8721 3.07227c4.43262 0 9.04004 -0.847656 13.8242 -2.55957v0.511719l25.0879 -10.2402c-9.90332 17.7441 -24.7354 26.624 -44.5439 26.624c-13.6641 0 -25.3438 -4.86426 -35.0723 -14.5918
c-9.72754 -9.72754 -14.5918 -21.5996 -14.5918 -35.584zM301.68 81.9199c9.9043 -17.7441 24.752 -26.624 44.5605 -26.624c13.6641 0 25.4238 4.86426 35.3115 14.5918c9.9043 9.72852 14.8486 21.584 14.8486 35.584c0 13.6641 -4.84863 25.3447 -14.5762 35.0723
c-9.72852 9.72852 -21.6006 14.5762 -35.584 14.5762c-4.78418 0 -8.36816 -0.335938 -10.752 -1.00781l20.4639 -8.19238c10.2559 -4.0957 17.584 -11.2637 22.0156 -21.5195c2.38379 -5.10449 3.58398 -10.2402 3.58398 -15.3447
c0 -4.7832 -1.00781 -9.72754 -3.05566 -14.8477c-4.0957 -10.5918 -11.2637 -17.9355 -21.5039 -22.0322c-5.12012 -2.04785 -10.2559 -3.05566 -15.376 -3.05566c-4.78418 0 -9.71191 1.00781 -14.8486 3.05566c-2.71973 1.02441 -6.91113 2.65625 -12.5273 4.87988
c-5.63184 2.22461 -9.80859 3.85645 -12.5605 4.86426zM439.936 253.44c0 -16.7207 5.96875 -31.0566 17.9209 -43.0088c11.9512 -11.9512 26.2871 -17.9199 43.0078 -17.9199c17.0557 0 31.5674 5.96875 43.5039 17.9199c11.9521 11.9521 17.9355 26.2881 17.9355 43.0088
c0 16.7197 -5.9834 31.0557 -17.9355 43.0078c-11.9365 11.9521 -26.4326 17.9199 -43.5039 17.9199c-16.7363 0 -31.0566 -5.98438 -43.0078 -17.9199c-11.9521 -11.9365 -17.9209 -26.2881 -17.9209 -43.0078zM452.736 253.952c0 13.3115 4.7041 24.7363 14.0801 34.3037
c9.3916 9.55176 20.8955 14.3359 34.5596 14.3359c13.3281 0 24.752 -4.78418 34.3203 -14.3359c9.56738 -9.56738 14.3359 -20.9922 14.3359 -34.3037c0 -13.6484 -4.76855 -25.248 -14.3359 -34.8164c-9.56836 -9.55176 -21.0078 -14.3359 -34.3203 -14.3359
c-13.6484 0 -25.168 4.78418 -34.5596 14.3359c-9.37598 9.55273 -14.0801 21.1523 -14.0801 34.8164z" />
    <glyph glyph-name="uniF126" unicode="&#xf126;" 
d="M93.248 27.6641c0 29.6797 15.1836 56.1436 45.5684 79.3438c30.3672 23.2158 67.0713 34.832 110.08 34.832h27.6475c-14.3359 13.6484 -21.5195 28.3359 -21.5195 44.0322c0 9.9043 2.75195 19.792 8.20801 29.6963
c-3.4248 -0.335938 -8.35254 -0.512695 -14.8643 -0.512695c-35.4883 0 -64.4961 11.0879 -87.0244 33.2803c-22.5273 22.1924 -33.792 49.4883 -33.792 81.9199c0 31.0557 14 58.1924 41.9844 81.4082c27.9834 23.2158 59.9043 34.8164 95.7441 34.8164h158.72
l-35.3281 -25.6006h-50.1758c16.0322 -6.14355 28.5918 -17.7441 37.6318 -34.8154c9.04004 -17.0566 13.5684 -36 13.5684 -56.832c0 -31.7441 -15.0078 -59.3926 -45.04 -82.9443c-12.624 -9.9043 -20.832 -17.7441 -24.5762 -23.5518
c-3.74414 -5.80859 -5.63184 -12.9766 -5.63184 -21.5039c0 -6.48047 4.5918 -14.6729 13.8076 -24.5762c9.21582 -9.88867 18.4326 -18.2725 27.6641 -25.0723c20.8164 -14.6875 35.248 -29.6963 43.2637 -45.0557c8.0166 -15.376 12.0322 -34.6562 12.0322 -57.8564
c0 -30.7197 -13.9834 -57.4238 -41.9834 -80.1279s-65.8721 -34.0479 -113.664 -34.0479c-45.4082 0 -83.8086 8.52832 -115.217 25.5996c-31.3916 17.0244 -47.1035 39.5684 -47.1035 67.5684zM150.592 44.5439c0 -23.5518 9.98438 -43.6162 29.9521 -60.1758
c19.9678 -16.5439 44.7998 -24.8164 74.4805 -24.8164c40.624 0 70.0635 7.50391 88.3359 22.5127c18.2715 15.0078 27.3916 34.9912 27.3916 59.9033c0 6.48047 -0.6875 11.9521 -2.04785 16.3838c-1.00781 3.74414 -2.22363 7.24805 -3.58398 10.4961
c-1.37598 3.23242 -3.4082 6.46387 -6.16016 9.71191c-2.71973 3.24805 -5.10352 5.96875 -7.15234 8.19238c-2.04785 2.22363 -5.37598 5.02441 -9.9834 8.44824c-4.6084 3.42383 -8.1123 5.96777 -10.4961 7.66406c-2.38379 1.71191 -6.65625 4.7041 -12.7998 8.97559
c-6.16016 4.27246 -10.5928 7.24805 -13.3125 8.95996c-13.3115 4.1123 -26.4482 6.14453 -39.4238 6.14453h-2.04785c-29.6963 0 -55.8086 -8.0166 -78.3359 -24.0645c-23.2002 -16.3516 -34.8164 -35.8242 -34.8164 -58.3359zM184.368 330.752
c3.75977 -26.96 14.0957 -50.1758 30.9922 -69.6318c16.8955 -19.4561 35.584 -29.3438 56.0801 -29.6963h2.03125c19.1201 0 34.4639 8.87988 46.0967 26.624c9.21582 14.3359 13.8076 31.2324 13.8076 50.6885c0 5.45605 -0.335938 11.2637 -1.02441 17.4072
c-3.40723 26.9766 -13.5674 49.8408 -30.4473 68.6084s-35.584 28.4961 -56.0645 29.1836h-2.04785c-19.4717 0 -35.0078 -8.70312 -46.5918 -26.1113c-9.21582 -14 -13.8242 -30.7207 -13.8242 -50.1758c-0.015625 -5.45605 0.320312 -11.0889 0.992188 -16.8965z" />
    <glyph glyph-name="uniF12E" unicode="&#xf12e;" 
d="M45.5 446.4c5.09961 1.19922 36.9004 1.39941 210 1.5c226.4 0.0996094 209.8 0.599609 224.4 -6.60059c10.2998 -5.09961 20.3994 -15.2002 25.2998 -25.2998c7.2998 -14.7998 6.7998 2.2998 6.5 -226.5l-0.200195 -206l-2.2002 -6.40039
c-6.59961 -18.6992 -19.7002 -31.7998 -38.3994 -38.3994l-6.40039 -2.2002l-206 -0.200195c-223.6 -0.299805 -211 -0.599609 -223.9 5.10059c-12.3994 5.5 -23.3994 16.3994 -29.0996 28.8994c-5.7998 12.5 -5.5 0.299805 -5.40039 222.2
c0 197.5 0.100586 204.2 1.90039 211.3c2.7998 10.6006 7.5 18.6006 15.5 26.7002c7.90039 7.7998 17.9004 13.5 28 15.9004zM444.1 385.5l-4.2998 3l-34.5996 0.299805l-34.7002 0.299805l-5 -2.5c-5.40039 -2.69922 -8.7998 -7 -10.2002 -12.5996
c-0.5 -1.90039 -0.899414 -18.4004 -0.799805 -36.5l0.0996094 -33.0996l3 -4.40039c1.7002 -2.59961 4.90039 -5.59961 7.40039 -7l4.5 -2.40039l33 -0.0996094c36.2002 -0.0996094 38.7998 0.200195 44.2998 5.59961c6.10059 5.90039 6.2998 7.80078 6 44.9004
c-0.299805 38.0996 -0.5 38.7002 -8.7002 44.5zM275.9 288.4c-9.40039 1.89941 -20 2.39941 -30.2002 1.39941c-24.9004 -2.39941 -50.2998 -16.2002 -66 -35.8994c-28.7998 -35.9004 -29.5 -84.9004 -1.90039 -121.5c12.2002 -16.1006 28.2002 -27.5 47.7998 -33.9004
c13.9004 -4.5 29 -6.09961 41.4004 -4.2998c3 0.5 7 1.09961 8.90039 1.2998c5.89941 0.900391 18.3994 5.5 26.3994 9.7998c27.2002 14.5 47 42.7998 51.2998 73.6006c1.2002 8.09961 0.600586 24.3994 -1.09961 32.5c-8.09961 38.6992 -38.2998 69.0996 -76.5996 77z
M101.8 223.5l1.7998 8h-21.8994c-14 0 -22.1006 -0.400391 -22.2998 -1c-0.300781 -0.599609 -0.300781 -50.7002 -0.200195 -111.5l0.299805 -110.5l2.40039 -3.7998c1.2998 -2.10059 4.19922 -5 6.39941 -6.5l4.10059 -2.7002l182.5 -0.200195l182.6 -0.299805l4.5 2.2998
c2.59961 1.40039 5.7998 4.2002 7.5 6.60059l3 4.2998l0.299805 111.1c0.100586 66.9004 -0.0996094 111.3 -0.700195 111.601c-0.699219 0.5 -39.5996 0.599609 -43.3994 0.199219c-0.5 -0.0996094 -0.600586 -0.5 -0.299805 -1c1 -1.59961 3.5 -14.5 4.09961 -21.5996
c1.90039 -21.0996 0.700195 -36.7998 -4.09961 -56c-15.1006 -59.7002 -67.2002 -107.1 -127.4 -116c-51.2002 -7.7002 -99.9004 8.2002 -136.1 44.4004c-13.6006 13.6992 -21.7002 24.7998 -29.9004 41.0996c-15.4004 30.7002 -20.2998 68.5 -13.2002 101.5z" />
    <glyph glyph-name="uniF157" unicode="&#xf157;" 
d="M-67.3838 -8.42773c10.4199 -1.01465 20.8262 -1.54785 31.2207 -1.54785c61.0479 0 115.527 18.7314 163.386 56.1699c-28.4238 0.351562 -53.9326 9.04102 -76.4766 26.043c-22.5693 16.9893 -37.9844 38.6748 -46.3232 65.0557
c6.93359 -1.41797 15.1025 -2.09473 24.4561 -2.09473c12.1494 0 23.7666 1.57422 34.8623 4.68359c-30.5176 5.86621 -55.7666 20.8916 -75.709 44.9961c-19.9551 24.1309 -29.9199 51.9688 -29.9199 83.5273v1.57422c18.3945 -10.4199 38.3105 -15.8057 59.8262 -16.1309
c-18.0166 11.7988 -32.3389 27.3047 -42.915 46.5703c-10.5752 19.2393 -15.8701 40.1309 -15.8701 62.6748c0 23.5977 6.08789 45.6074 18.2119 66.0957c32.5996 -40.5859 72.418 -72.9385 119.431 -97.0557c47 -24.0918 97.3682 -37.5293 151.158 -40.3262
c-2.43262 11.4473 -3.65527 21.5156 -3.65527 30.1797c0 36.085 12.8398 66.9541 38.5049 92.6201c25.6787 25.666 56.7041 38.5049 93.1533 38.5049c37.79 0 69.7002 -13.8799 95.7295 -41.6396c30.167 6.25684 57.9268 17.0146 83.2549 32.2607
c-9.71777 -31.5586 -28.8145 -55.8457 -57.2373 -72.8477c25.3271 3.10938 50.3037 10.0557 74.9287 20.8135c-16.6514 -26.0166 -38.3359 -48.7422 -65.0557 -68.1514v-17.1973c0 -34.9922 -5.125 -70.1279 -15.3496 -105.355
c-10.2119 -35.2139 -25.8486 -68.8535 -46.8311 -100.972c-20.9951 -32.0654 -46.0498 -60.6191 -75.1885 -85.5693c-29.126 -24.9766 -64.0801 -44.8535 -104.849 -59.5918c-40.7549 -14.752 -84.5547 -22.0889 -131.398 -22.0889
c-72.4834 0.0136719 -139.606 19.6045 -201.345 58.7988z" />
    <glyph glyph-name="uniF156" unicode="&#xf156;" 
d="M84.6084 238.08v72.7041c20.4795 6.83203 37.7119 16.2236 51.7119 28.1602c14 11.2637 25.4238 25.9355 34.3037 44.0312c8.87988 18.0801 14.8643 39.7607 17.9199 65.0244h73.2002v-129.536h121.344v-80.3838h-121.344v-131.072
c0 -29.3438 1.55176 -48.4482 4.5918 -57.3438c3.07227 -8.19238 8.89648 -14.8477 17.4404 -19.9678c11.6152 -6.81641 24.5596 -10.2402 38.9121 -10.2402c26.2871 0 52.0479 8.35156 77.3115 25.0879v-80.3838c-21.5039 -10.5605 -41.2959 -17.9043 -59.3916 -22.0166
c-17.7285 -4.0957 -36.8965 -6.14355 -57.3447 -6.14355c-23.2158 0 -44.0312 2.91211 -62.4639 8.7041c-18.7676 6.47949 -33.9678 15.0078 -45.5674 25.6162c-12.3047 10.5596 -21.168 22.208 -26.624 34.8154c-4.78418 11.584 -7.16797 29.5205 -7.16797 53.7441v179.2
h-56.832z" />
    <glyph glyph-name="uniF13E" unicode="&#xf13e;" 
d="M-67.7764 188.928v26.1123c0 12.9756 14.8486 24.0635 44.5439 33.2803c29.6963 9.21582 65.6963 13.8232 108.032 13.8232c42.3203 0 78.3359 -4.60742 108.032 -13.8232c29.6963 -9.2168 44.5439 -20.3203 44.5439 -33.2803v-26.1123
c-0.335938 -12.9756 -15.3604 -23.9834 -45.0557 -33.0234c-29.6963 -9.04004 -65.5361 -13.5684 -107.521 -13.5684c-41.9834 0 -77.8242 4.51172 -107.52 13.5684c-29.6963 9.05566 -44.7207 20.0479 -45.0566 33.0234zM79.168 313.344v13.8242
c0.671875 6.49609 11.5996 12.0322 32.7676 16.6396c21.1523 4.6084 46.5928 6.91211 76.2881 6.91211c29.6963 0 55.04 -2.30371 76.0322 -6.91211c20.9922 -4.60742 31.8242 -10.1436 32.5117 -16.6396h0.512695v-13.8242h-0.512695
c-0.6875 -6.83203 -11.5195 -12.5439 -32.5117 -17.1514c-20.9922 -4.6084 -46.3359 -6.91211 -76.0322 -6.91211c-29.6953 0 -55.1357 2.30371 -76.2881 6.91211c-21.168 4.60742 -32.0957 10.3193 -32.7676 17.1514zM187.2 60.4004v32.7832
c1.35938 19.1045 21.3281 35.248 59.9033 48.3682c38.5762 13.1523 84.8164 19.7119 138.736 19.7119c53.9365 0 100.096 -6.55957 138.496 -19.7119c38.4004 -13.1201 58.2881 -29.2637 59.6641 -48.3682v-32.7832c-1.02441 -18.7686 -20.832 -34.8164 -59.4082 -48.1279
c-38.5596 -13.3125 -84.8154 -19.9688 -138.752 -19.9688c-53.9199 0 -100.176 6.57617 -138.736 19.7119c-38.5596 13.1367 -58.5439 29.2959 -59.9033 48.3848zM303.936 235.008v21.5039c0.672852 9.88867 13.5684 18.2559 38.6562 25.0879
c25.0723 6.83203 55.0244 10.2402 89.8398 10.2402c34.8164 0 64.7842 -3.4082 89.8564 -10.2402s37.9844 -15.1992 38.6562 -25.0879v-21.5039c0 -9.9043 -12.5439 -18.4316 -37.6484 -25.5996c-25.0723 -7.16797 -55.376 -10.752 -90.8799 -10.752
s-65.7764 3.58398 -90.8799 10.752c-25.0723 7.16797 -37.6006 15.6953 -37.6006 25.5996z" />
    <glyph glyph-name="uniF125" unicode="&#xf125;" 
d="M-47.4082 -31.7441v459.264h94.7197l4.6084 -4.0957h422.4l4.60742 4.0957h89.0723v-460.8h-87.5518v3.60059h-437.76v-2.06445h-90.0967zM42.6885 35.8398v-40.9756h437.76v37.8877l-176.641 132.608l-40.4473 -33.2803l-44.0322 35.8398zM42.6885 66.5596
l157.184 117.248l-157.184 129.024v-246.272zM85.2002 394.752l178.176 -152.576l177.664 152.576h-355.84zM323.28 181.248l157.168 -117.76v247.808z" />
    <glyph glyph-name="uniF15B" unicode="&#xf15b;" 
d="M-56.3203 102.4c0 54.9434 31.4082 114.176 94.208 177.664c39.9365 39.5996 80.2246 67.2471 120.832 82.9434c19.1201 7.85645 35.6641 11.7764 49.6641 11.7764c15.3604 0 27.6484 -4.6084 36.8643 -13.8242c8.87988 -8.87988 13.3115 -21.168 13.3115 -36.8643
c0 -10.5762 -2.04785 -22.8633 -6.14355 -36.8633c-1.36035 -4.78418 -0.847656 -7.76074 1.53613 -8.95996c2.38379 -1.2002 5.12012 -1.28027 8.19141 -0.256836l5.12012 2.04883c32.752 13.6631 61.792 20.4795 87.04 20.4795s43.3447 -7.16797 54.2881 -21.5039
c5.10449 -7.50391 7.66406 -16.3838 7.66406 -26.624c0 -10.5762 -2.73633 -22.6885 -8.20801 -36.3516c-2.36816 -3.4082 -2.81543 -6.32031 -1.28027 -8.7041c1.55273 -2.38477 2.91211 -3.91992 4.1123 -4.6084c1.2002 -0.671875 3.66406 -1.53613 7.42383 -2.55957
c21.1523 -6.49609 39.248 -17.0723 54.2881 -31.7607c15.0078 -14.6553 22.5117 -32.9434 22.5117 -54.7832c0 -20.1289 -6.99121 -40.6885 -20.9912 -61.6807s-33.0244 -40.1914 -57.0879 -57.5996c-24.0645 -17.4082 -54.4326 -31.7441 -91.1201 -43.0078
c-36.7041 -11.2646 -75.6963 -16.8965 -116.992 -16.8965c-44.7197 0 -86.96 6.56055 -126.72 19.6963c-39.7607 13.1357 -72.7842 32.7676 -99.0723 58.8955c-26.2881 26.1123 -39.4404 55.9043 -39.4404 89.3447zM7.67969 77.8242
c3.4082 -34.4805 24.752 -61.9521 64 -82.4326c31.4082 -16.7354 67.0723 -25.0713 107.009 -25.0713c9.90332 0 20.1436 0.496094 30.7197 1.53613c52.2236 5.11914 95.7441 21.6631 130.56 49.6631c31.4082 25.6006 47.1045 53.7607 47.1045 84.4805
c0 3.07227 -0.175781 6.14355 -0.512695 9.21582c-3.40723 34.1445 -24.752 61.4404 -64 81.9199c-31.7432 16.7207 -67.584 25.0879 -107.52 25.0879c-9.9043 0 -19.9678 -0.511719 -30.208 -1.53516c-34.4639 -3.4082 -65.6963 -12.1123 -93.6963 -26.1123
c-27.9834 -14 -49.4873 -31.2324 -64.5117 -51.7119c-12.9756 -18.0967 -19.4561 -36.6885 -19.4561 -55.8086c0 -3.08789 0.175781 -6.14355 0.511719 -9.23145zM89.6162 46.0801c-4.43262 9.8877 -6.65625 19.9678 -6.65625 30.208
c0 11.9521 3.07227 23.9043 9.21582 35.8398c10.5918 21.8398 28.3359 38.2402 53.248 49.1523c15.3604 6.83203 30.8965 10.2393 46.5918 10.2393c9.2168 0 18.4326 -1.18359 27.6484 -3.58398c25.9355 -6.83203 44.5439 -20.8154 55.8076 -41.9834
c5.79199 -10.9277 8.68848 -22.1924 8.68848 -33.792c0 -10.9277 -2.54395 -22.0166 -7.66406 -33.2803c-10.5762 -24.2236 -29.1846 -41.9678 -55.8076 -53.248c-15.0088 -6.46387 -30.0322 -9.71191 -45.0566 -9.71191c-11.6162 0 -23.04 1.87207 -34.3037 5.63184
c-24.9277 7.83984 -42.1602 22.6885 -51.7119 44.5283zM118.288 55.8076c2.04785 -8.52734 7.16797 -14.4961 15.3604 -17.9199c4.43164 -2.04785 9.04004 -3.07129 13.8232 -3.07129c4.09668 0 8.19238 0.6875 12.2881 2.06348
c9.56836 3.05566 16.8965 8.68848 22.0166 16.8799c3.40723 5.47266 5.12012 10.9443 5.12012 16.3838c0 2.38477 -0.512695 4.95996 -1.53613 7.68066c-2.04883 8.19141 -7.16797 13.9834 -15.3604 17.4082c-4.43164 1.69531 -8.87988 2.54395 -13.3115 2.54395
c-4.09668 0 -8.35254 -0.672852 -12.8008 -2.03223c-9.21582 -3.07227 -16.2236 -8.52832 -20.9912 -16.3838c-3.76074 -5.45605 -5.63281 -11.0879 -5.63281 -16.8965c0 -2.38379 0.335938 -4.60742 1.02441 -6.65625zM190.464 96.2559
c1.02441 -3.05566 3.24805 -5.28027 6.65625 -6.65625c1.71191 -0.6875 3.32812 -1.00781 4.86426 -1.00781c1.53516 0 3.15137 0.335938 4.86328 1.00781c3.74414 1.37598 6.48047 3.60059 8.19238 6.65625c1.71191 3.07227 2.04785 6.16016 1.02441 9.21582
c-1.02441 3.07227 -3.07227 5.2959 -6.14453 6.65625c-3.07227 1.02441 -6.40039 0.944336 -9.98438 -0.255859s-6.23926 -3.32812 -7.93555 -6.40039c-1.02441 -2.04785 -1.53613 -4.0957 -1.53613 -6.14355v-3.07227zM354.816 414.208
c-0.335938 1.69629 -0.496094 3.4082 -0.496094 5.12012c0 4.43164 1.37598 8.7041 4.0957 12.7998c3.4082 5.45605 8.36816 9.04004 14.8477 10.752c11.6162 2.38379 23.2168 3.58398 34.8164 3.58398c17.4082 0 34.4795 -2.55957 51.2158 -7.67969
c28.3037 -9.21582 52.7041 -25.0879 73.1846 -47.6162c20.4795 -22.5283 33.792 -48.6396 39.9355 -78.3359c2.40039 -11.9521 3.58398 -23.5518 3.58398 -34.8164c0 -17.4072 -2.71973 -34.1279 -8.19238 -50.1758v-0.511719
c-2.04785 -6.14453 -5.96777 -10.752 -11.7754 -13.8242c-3.74414 -1.69629 -7.50391 -2.55957 -11.248 -2.55957c-2.40039 0 -4.95996 0.335938 -7.68066 1.02344c-6.47949 2.04785 -11.0879 5.96777 -13.8076 11.7764c-1.71191 3.75977 -2.55957 7.34375 -2.55957 10.752
c0 2.71973 0.335938 5.2959 1.00781 7.66406v0.511719c3.75977 11.6162 5.64746 23.5518 5.64746 35.8398c0 7.83984 -0.6875 16.0322 -2.06348 24.5762c-4.43164 21.168 -13.9844 39.7598 -28.6562 55.8086c-14.6875 16.0312 -32.0957 27.3115 -52.2402 33.792
c-11.9512 3.40723 -23.8877 5.11914 -35.8232 5.11914c-8.20801 0 -16.5605 -0.863281 -25.0889 -2.55957c-1.71191 -0.335938 -3.40723 -0.511719 -5.11914 -0.511719c-4.78418 0 -9.2168 1.35938 -13.3125 4.0957c-5.48828 3.77637 -8.89551 8.87988 -10.2715 15.376z
M375.312 333.824c-0.335938 1.69531 -0.527344 3.4082 -0.527344 5.12012c0 3.40723 1.02344 6.99121 3.08789 10.752c3.05566 4.78418 7.50391 7.85547 13.2959 9.21582c6.48047 1.36035 12.7998 2.04785 18.96 2.04785c22.8799 0 42.4961 -9.04004 58.8799 -27.1357
c9.9043 -11.2646 16.3682 -24.0645 19.4561 -38.4004c1.00781 -5.79199 1.55176 -11.4238 1.55176 -16.8955c0 -8.19238 -1.37598 -16.3848 -4.0957 -24.5762c-1.71191 -5.45605 -5.12012 -9.39258 -10.2559 -11.7764
c-3.05566 -1.69531 -6.16016 -2.55957 -9.21582 -2.55957c-2.38379 0 -4.6084 0.335938 -6.65625 1.02344c-5.47168 1.69629 -9.56836 5.12012 -12.2881 10.2402c-1.37598 3.07227 -2.06348 6.14453 -2.06348 9.21582c0 2.38477 0.335938 4.6084 1.02344 6.65625
c1.37598 4.78418 2.04785 9.21582 2.04785 13.3125c0 9.56738 -3.58398 18.0957 -10.752 25.5996c-7.51953 8.87988 -16.7354 13.3115 -27.6475 13.3115c-3.42383 0 -6.84863 -0.335938 -10.2559 -1.02344c-1.68066 -0.335938 -3.2168 -0.511719 -4.57617 -0.511719
c-3.76074 0 -7.34473 1.19922 -10.7686 3.58398c-4.76758 3.07129 -7.83984 7.32715 -9.2002 12.7998z" />
    <glyph glyph-name="uniF15F" unicode="&#xf15f;" 
d="M6.7041 89.5996l88.5762 146.433l-66.5605 117.248h112.145l66.5439 -117.248l-88.5762 -146.433h-112.128zM192.048 135.68l177.168 311.296h118.784l-176.656 -311.296l113.664 -200.72h-118.768z" />
    <glyph glyph-name="uniF141" unicode="&#xf141;" 
d="M59.7119 262.656c0 21.5039 4.52832 42.832 13.5684 64s22.0156 40.7842 38.9121 58.8799c16.8955 18.0801 39.0879 32.7676 66.5596 44.0322c27.4717 11.2637 57.9521 16.8955 91.3916 16.8955c54.2725 0 98.8164 -16.7197 133.633 -50.1758
c34.8154 -33.4561 52.2236 -72.8799 52.2236 -118.272c0 -58.3672 -14.752 -106.575 -44.2881 -144.64s-67.6641 -57.0879 -114.432 -57.0879c-15.3447 0 -29.7764 3.59961 -43.248 10.752c-13.5039 7.18359 -22.9766 15.8721 -28.416 26.1279l-20.4805 -80.9121
c-1.69531 -6.46387 -3.91992 -13.04 -6.65527 -19.6963c-2.7207 -6.65527 -5.71289 -13.0557 -8.96094 -19.1992c-3.24707 -6.14453 -6.47949 -11.9365 -9.72754 -17.4082s-6.48047 -10.5918 -9.72754 -15.3604c-3.24805 -4.78418 -6.06445 -8.7998 -8.44824 -12.0322
c-2.38379 -3.23145 -4.6084 -6.06348 -6.65625 -8.44727l-3.08789 -4.1123c-1.02441 -1.37598 -2.38379 -1.87207 -4.0957 -1.53613c-1.69629 0.335938 -2.7207 1.36035 -3.07227 3.05566c0 0.336914 -0.255859 2.73633 -0.768555 7.16895
c-0.511719 4.43164 -1.02344 9.13574 -1.53516 14.0791c-0.512695 4.95996 -1.02441 11.3447 -1.53613 19.2002c-0.512695 7.85645 -0.671875 15.4561 -0.512695 22.7842c0.176758 7.34375 0.672852 15.4561 1.53613 24.3359
c0.848633 8.87988 2.12793 17.0557 3.83984 24.5605c3.76074 16.0479 16.3848 69.4717 37.8887 160.271c-2.73633 5.45605 -4.95996 12.0322 -6.65625 19.7119c-1.71191 7.67969 -2.55957 13.9043 -2.55957 18.6885l-0.496094 7.67969
c0 21.8398 5.53613 40.0156 16.6396 54.5283c11.0879 14.4961 24.4961 21.7598 40.1924 21.7598c12.6396 0 22.4473 -4.17578 29.4395 -12.5439c7.00781 -8.35254 10.4961 -18.8643 10.4961 -31.4883c0 -7.85547 -1.43945 -17.4883 -4.33594 -28.9277
c-2.89551 -11.4404 -6.75195 -24.5762 -11.5361 -39.4238c-4.76758 -14.8486 -8.19141 -26.8799 -10.2402 -36.0967c-3.40723 -15.376 -0.416016 -28.6875 8.95996 -39.9355c9.4082 -11.2637 21.9365 -16.9121 37.6484 -16.9121c26.9756 0 49.2324 15.2803 66.832 45.8242
c17.5684 30.5596 26.3516 67.5039 26.3516 110.848c0 33.1045 -10.752 60.1602 -32.2715 81.1523c-21.5039 20.9922 -51.5361 31.4883 -90.0957 31.4883c-43.0088 0 -77.9199 -13.8242 -104.704 -41.4727c-26.7998 -27.6475 -40.1924 -60.752 -40.1924 -99.3281
c0 -22.8633 6.48047 -42.1436 19.4561 -57.8555c4.43164 -5.12012 5.80762 -10.5918 4.0957 -16.3838c-0.6875 -1.71289 -1.71191 -5.63281 -3.07129 -11.7764c-1.36035 -6.14453 -2.38477 -10.0645 -3.07227 -11.7764
c-0.671875 -3.74414 -2.38379 -6.22363 -5.12012 -7.40723c-2.73633 -1.2002 -5.80762 -1.12012 -9.21582 0.255859c-20.1602 8.19141 -35.2637 22.2715 -45.3438 42.2393c-10.0801 19.9688 -15.1045 43.2646 -15.1045 69.8887z" />
    <glyph glyph-name="uniF138" unicode="&#xf138;" 
d="M0 183.808c0 46.4219 11.4346 89.2594 34.3037 128.513c22.8698 39.2533 53.9313 70.3145 93.1846 93.1836s82.0905 34.3037 128.512 34.3037c46.4212 0 89.2585 -11.4346 128.512 -34.3037s70.3148 -53.9303 93.1846 -93.1836
c22.8691 -39.2533 34.3037 -82.0908 34.3037 -128.513c0 -46.4212 -11.4346 -89.2585 -34.3037 -128.512c-22.8698 -39.2533 -53.9313 -70.3145 -93.1846 -93.1836c-39.2533 -22.8698 -82.0905 -34.3047 -128.512 -34.3047c-46.4212 0 -89.2585 11.4349 -128.512 34.3047
c-39.2533 22.8691 -70.3148 53.9303 -93.1846 93.1836c-22.8691 39.2533 -34.3037 82.0905 -34.3037 128.512zM106.496 20.4805c0 -8.875 4.43717 -13.3125 13.3115 -13.3125h90.1123c9.55729 0 14.3359 4.4375 14.3359 13.3125v24.5752
c0 8.875 -4.77865 13.3125 -14.3359 13.3125h-14.8477v235.52h14.8477c9.55729 0 14.3359 4.4375 14.3359 13.3125v24.5762c0 8.87435 -4.77865 13.3115 -14.3359 13.3115h-90.1123c-8.87435 0 -13.3115 -4.43717 -13.3115 -13.3115v-24.5762
c0 -8.875 4.43717 -13.3125 13.3115 -13.3125h15.8721v-235.52h-15.8721c-8.87435 0 -13.3115 -4.4375 -13.3115 -13.3125v-24.5752zM248.32 18.4316c0 -8.19206 4.09603 -12.2881 12.2881 -12.2881h30.208c7.50911 0 11.2637 4.09603 11.2637 12.2881v131.584
c0 35.1576 13.4827 52.7363 40.4482 52.7363c14.3359 0 21.5039 -8.7041 21.5039 -26.1123v-158.208c0 -8.19206 3.75456 -12.2881 11.2637 -12.2881h31.2324c7.16797 0 10.752 4.09603 10.752 12.2881v170.496c0 41.6426 -18.7734 62.4639 -56.3203 62.4639
c-22.8691 0 -43.6904 -10.9225 -62.4639 -32.7676l-3.58398 18.4316c-1.36523 7.50977 -5.46126 11.2646 -12.2881 11.2646h-22.0156c-8.19206 0 -12.2881 -4.26693 -12.2881 -12.8008v-217.088z" />
    <glyph glyph-name="uniF15C" unicode="&#xf15c;" 
d="M-22.2881 372.736v10.752l1.02441 1.02344h127.504l1.02344 -1.02344v-10.2402c0 -2.73633 -1.71191 -4.0957 -5.12012 -4.0957l-13.3271 -0.512695c-11.248 -0.335938 -16.8809 -3.75977 -16.8809 -10.2393c0 -4.43262 1.2002 -9.2168 3.58398 -14.3359
c17.0723 -41.6484 54.9609 -124.24 113.664 -247.809l3.07227 -0.496094l56.832 113.185c-4.43164 10.2236 -8.19141 18.5918 -11.2637 25.0713l-38.9121 76.8008l-10.2402 20.4795c-8.87988 17.3926 -14.6719 27.7119 -17.4082 30.96
c-2.73535 3.24805 -8.36719 5.55176 -16.8955 6.91211c-4.78418 0.671875 -7.18457 1.85645 -7.18457 3.56836v10.752l1.53613 1.02344h100.88l2.54395 -0.511719v-10.752c0 -2.73633 -1.69531 -4.0957 -5.11914 -4.0957l-7.68066 -1.02441
c-4.43164 -0.671875 -7.67969 -1.53613 -9.72754 -2.55957c-2.04785 -1.02441 -2.99219 -3.07227 -2.81641 -6.14453s0.848633 -6.04785 2.04785 -8.95996c1.2002 -2.89551 3.66406 -8.0957 7.4248 -15.6162l37.376 -76.7998l41.4717 82.9443
c5.47168 10.9277 6.32031 18.2559 2.55957 22.0156c-2.06348 2.71973 -8.36816 4.6084 -18.9756 5.63184l-4.62402 0.512695c-1.36035 0 -2.52832 0.511719 -3.58398 1.53613c-0.992188 0.335938 -1.55176 1.35938 -1.55176 3.07129v9.72852l1.55176 1.02344
c19.4561 0.335938 51.168 0.335938 95.2002 0l1.02344 -1.02344v-10.2402c0 -2.73633 -1.53613 -4.0957 -4.62402 -4.0957c-7.50391 -0.335938 -12.7041 -1.10449 -15.5996 -2.33594c-2.91211 -1.18457 -5.71191 -3.84082 -8.46387 -7.93652
c-7.83984 -11.6162 -12.9766 -19.792 -15.3438 -24.5762l-53.7441 -100.352l-1.47266 -3.55176l65.5684 -134.145l4.0957 -1.53613l103.44 246.272c4.0957 9.55176 3.59961 16.5596 -1.56836 20.9922c-4.44824 4.0957 -11.1035 6.31934 -19.9834 6.65527l-9.71289 0.512695
c-1.02344 0 -2.06348 0.511719 -3.05566 1.53613c-1.37598 0.6875 -2.06348 1.69531 -2.06348 3.07129v10.2402l1.53516 1.02441h117.248l1.02441 -1.02441v-10.2402c0 -2.38379 -1.56836 -3.91992 -4.62402 -4.60742
c-15.6797 -0.688477 -26.9756 -3.93652 -33.7764 -9.72852c-6.83203 -5.45605 -12.624 -13.8242 -17.4072 -25.0879l-128 -290.304c-3.4248 -7.83984 -7.24805 -13.0566 -11.5361 -15.6318c-4.25586 -2.54395 -8.33594 -2.36816 -12.2881 0.527344
c-3.93652 2.89648 -7.75977 8.09668 -11.5684 15.6162c-12.9756 25.5996 -33.7441 70.4805 -62.4482 134.656c-35.8398 -73.7285 -58.1914 -118.8 -67.0713 -135.168c-14 -24.2559 -26.1123 -24.4004 -36.3525 -0.496094
c-10.9277 25.5996 -33.1035 74.1602 -66.5596 145.664s-55.6484 120.399 -66.5605 146.688c-5.45605 14.3359 -10.2393 23.2158 -14.3359 26.624c-3.71191 3.39258 -12.5918 5.61621 -26.5752 6.64062c-4.78418 0.6875 -7.18457 1.87207 -7.18457 3.58398z" />
    <glyph glyph-name="uniF118" unicode="&#xf118;" 
d="M100.096 6.14355c0 25.9521 9.72852 45.0566 29.1846 57.3447c9.90332 6.47949 19.1035 11.4395 27.6475 14.8633c38.9287 16.7207 59.7285 25.9365 62.4639 27.6484c-7.16797 10.5762 -16.3838 22.1924 -27.6475 34.8164
c-17.4082 20.4795 -27.6641 32.6074 -30.7197 36.3516c-37.2002 45.0557 -53.248 87.2002 -48.1279 126.464c2.38379 18.752 9.55176 34.2881 21.5039 46.5762c4.43164 4.76758 11.5996 10.2402 21.5039 16.3838c12.6396 7.16797 20.3193 11.4238 23.04 12.7998
c1.71191 0.688477 5.56738 2.30469 11.5361 4.86426c5.96777 2.56055 11.0078 4.68848 15.0879 6.40039l24.0635 10.752l35.3438 15.3594c19.7764 8.54395 34.4648 15.3604 44.0322 20.4805c6.81641 3.74414 11.0879 2.71973 12.7842 -3.07227
c0 -3.74414 -4.5918 -8.01562 -13.8076 -12.7998c-20.832 -13.6641 -31.7441 -33.1035 -32.7842 -58.3682c-0.335938 -9.9043 0.527344 -19.7119 2.55957 -29.4395c2.06445 -9.72852 4.19238 -17.7441 6.40039 -24.0645c2.22363 -6.32031 6.55957 -14.1602 13.0557 -23.5518
c6.46387 -9.39258 11.0879 -15.792 13.8086 -19.2002c2.73535 -3.4082 8.62402 -10.2402 17.6641 -20.4795c9.03906 -10.2402 14.415 -16.3848 16.1279 -18.4326c2.04785 -2.38379 7.00781 -7.93555 14.8633 -16.6396c7.83984 -8.7041 13.4727 -15.1045 16.8799 -19.2002
c3.4248 -4.0957 8.20801 -10.5762 14.3369 -19.4561c6.15918 -8.87988 10.5918 -16.7363 13.3115 -23.5518c2.73633 -6.84863 5.37598 -15.1045 7.93555 -24.8486c2.56055 -9.71191 3.84082 -19.7119 3.84082 -29.9355c0 -12.9922 -2.22461 -24.5918 -6.65625 -34.832
c-4.0957 -10.9277 -8.97656 -19.6963 -14.5918 -26.3516c-5.61621 -6.65625 -13.7441 -13.4082 -24.3203 -20.2402c-11.9521 -7.16797 -20.9922 -12.2881 -27.1357 -15.3604c-7.85645 -4.0957 -18.2725 -8.7041 -31.2324 -13.8076
c-5.47168 -2.06445 -11.5361 -4.62402 -18.1914 -7.68066c-6.65625 -3.05566 -10.4805 -4.7832 -11.5049 -5.11914l-45.5518 -19.9688l-18.416 -9.21582c-10.9434 -5.45605 -19.4717 -9.02344 -25.6162 -10.752c-29.0078 -7.15234 -51.7119 -3.05566 -68.0957 12.3037
c-16.3838 15.3604 -24.5762 36.3359 -24.5762 62.96z" />
    <glyph glyph-name="uniF147" unicode="&#xf147;" 
d="M2.55957 -17.9199v170.496l59.3926 66.0479h43.5195v-32.7676h-28.6719l-40.96 -45.5684v-125.44h407.04v125.44l-40.96 45.5684h-28.6719v32.7676h43.5195l58.8809 -66.0479v-170.496h-473.089zM105.472 145.408v168.96l77.3125 77.3115h190.464v-246.271h-267.776z
M136.192 176.64h206.336v184.32h-129.024v-77.3115h-77.3115v-107.009z" />
    <glyph glyph-name="uniF121" unicode="&#xf121;" 
d="M-10.624 161.28c0 35.5039 12.4639 65.6953 37.376 90.624c24.9121 24.9121 55.1201 37.376 90.624 37.376s65.6963 -12.4639 90.624 -37.376c24.9121 -24.9287 37.376 -55.1201 37.376 -90.624s-12.4639 -65.7119 -37.376 -90.624
c-24.9277 -24.9287 -55.1201 -37.376 -90.624 -37.376s-65.6963 12.4473 -90.624 37.376c-24.9121 24.9121 -37.376 55.1201 -37.376 90.624zM272 161.28c0 35.5039 12.4639 65.6953 37.376 90.624c24.9121 24.9121 55.1201 37.376 90.624 37.376
s65.6963 -12.4639 90.624 -37.376c24.9121 -24.9121 37.376 -55.1201 37.376 -90.624s-12.4639 -65.7119 -37.376 -90.624c-24.9277 -24.9287 -55.1201 -37.376 -90.624 -37.376s-65.7119 12.4473 -90.624 37.376c-24.9121 24.9121 -37.376 55.1201 -37.376 90.624z" />
    <glyph glyph-name="uniF119" unicode="&#xf119;" 
d="M0.993164 75.1396v285.976c0 0.330729 0.496419 3.47526 1.48926 9.43359l168.309 -143.981l-167.812 -161.357c-1.32357 4.63411 -1.98535 7.94401 -1.98535 9.92969zM23.335 390.408c2.31706 0.992839 5.13053 1.48926 8.44043 1.48926h453.29
c2.97917 0 5.95801 -0.496419 8.93652 -1.48926l-168.805 -144.478l-22.3418 -17.873l-44.1865 -36.2441l-44.1875 36.2441l-22.3418 17.873zM23.8311 45.8477l169.302 162.351l65.5361 -53.124l65.5361 53.124l169.301 -162.351
c-2.64779 -0.99349 -5.46126 -1.49023 -8.44043 -1.49023h-453.29c-2.64844 0 -5.29655 0.496745 -7.94434 1.49023zM346.547 226.567l167.812 143.981c0.992839 -2.97917 1.48926 -6.1237 1.48926 -9.43359v-285.976c0 -2.97852 -0.496419 -6.28841 -1.48926 -9.92969z" />
    <glyph glyph-name="uniF167" unicode="&#xf167;" 
d="M256 -64v168l147.2 88v-169.6zM256 273.6l147.2 -83.1992v171.199l-147.2 -88zM108.8 187.2l147.2 -83.2002l-147.2 -86.4004v169.601zM256 448l-147.2 -86.4004v-174.399l147.2 86.3994v174.4z" />
    <glyph glyph-name="uniF149" unicode="&#xf149;" 
d="M-48.9756 193.536c0 21.1523 8.44727 39.248 25.3438 54.2715c16.8955 15.0244 36.0957 22.5283 57.5996 22.5283c21.168 0 39.0723 -6.14355 53.7598 -18.4316h2.56055c45.7275 27.9834 102.912 41.9834 171.52 41.9834l2.56055 2.04785l35.8398 136.704
l123.904 -18.4316c0 -0.335938 0.335938 -0.511719 1.00781 -0.511719c0.335938 0 0.335938 0.175781 0 0.511719c0.6875 0.335938 2.63965 2.99219 5.8877 7.93555c3.24805 4.95996 5.71191 8.1123 7.42383 9.47266c11.6328 10.9277 25.6328 16.3838 42 16.3838
c16.7207 0 30.8164 -5.55176 42.2568 -16.6396c11.4395 -11.0879 17.1357 -24.9922 17.1357 -41.7285c0 -16.7354 -5.69629 -31.0557 -17.1357 -43.0078c-11.4404 -11.9521 -25.5361 -17.9199 -42.2568 -17.9199c-19.4561 0 -34.3193 6.57617 -44.5273 19.7119
c-10.2559 13.1357 -15.376 29.6162 -15.376 49.4082c-0.688477 -0.335938 -17.3125 1.87207 -49.9043 6.65625c-32.6084 4.76758 -51.2959 7.66309 -56.0645 8.70312h-1.55176c-0.671875 -0.6875 -3.50391 -9.80762 -8.44824 -27.3916
c-4.94336 -17.584 -10.0635 -36.1758 -15.3438 -55.8076c-5.31152 -19.6328 -8.28809 -30.4648 -8.97559 -32.5127v-1.53613l2.55957 -2.04785c24.5605 0 49.7441 -3.50391 75.5205 -10.4961c25.7754 -6.99121 48.0479 -16.8154 66.8154 -29.4395l1.55273 -1.02441
c0.335938 0.335938 0.671875 0.512695 1.00781 0.512695s0.671875 0.175781 1.00781 0.511719c8.52832 6.14355 14.5918 10.3994 18.1924 12.7998c3.58398 2.38379 8.62305 4.6084 15.0879 6.65625c6.49609 2.04785 13.8232 3.07227 22.0312 3.07227
c23.2002 0 43.0088 -8.19238 59.376 -24.5762c16.4004 -16.3848 24.6084 -36.3525 24.6084 -59.9043c0 -16.0479 -4.52832 -30.7197 -13.584 -44.0322c-9.05566 -13.3115 -20.9121 -23.5674 -35.584 -30.7197c0 -66.5596 -44.3682 -118.288 -133.12 -155.136
c-14 -6.14453 -23.5684 -10.0645 -28.6719 -11.7607c-10.9277 -3.42383 -26.4482 -6.65527 -46.5918 -9.72754c-20.1445 -3.07227 -36.0166 -4.62402 -47.6162 -4.62402c-40.96 0 -80.3838 5.96777 -118.272 17.9199c-0.6875 0.671875 -12.9756 7.16797 -36.8633 19.4561
c-32.4326 17.4082 -58.4482 37.2002 -78.0801 59.3916c-19.6318 22.1924 -29.4404 48.8164 -29.4404 79.8721h-2.55957c-11.2646 5.79199 -21.3281 14.3359 -30.208 25.6162l-4.6084 6.12793c-5.12012 9.21582 -8.35156 16.9922 -9.72754 23.3125
c-1.37598 6.31934 -2.04785 14.9121 -2.04785 25.8398zM-31.5684 187.392c0 -22.5117 9.72852 -41.6475 29.1846 -57.3438c1.69531 20.1445 9.90332 39.9365 24.5762 59.3926c14.6719 19.4561 31.9199 36.6875 51.7119 51.7119
c-12.6406 8.86328 -26.624 13.3115 -41.9844 13.3115c-16.7197 0 -31.4883 -6.91211 -44.2881 -20.7363c-12.7998 -13.8232 -19.2002 -29.2637 -19.2002 -46.3359zM20.6719 112.64c0 -18.416 5.2959 -36.1758 15.8721 -53.248
c10.5762 -17.0557 24.1445 -31.6641 40.7041 -43.7598c16.5596 -12.1279 34.0479 -22.2881 52.4795 -30.4639c18.4326 -8.17578 36.3525 -14 53.7607 -17.4082c25.5996 -4.78418 50.5273 -7.16797 74.752 -7.16797c41.9834 0 81.7441 6.73633 119.296 20.2246
c37.5361 13.4873 69.1201 34.3838 94.7197 62.7354h-1.53613c10.2402 12.9766 17.5684 24.6562 22 35.0566c4.43262 10.3994 6.65625 22.7832 6.65625 37.1191c0 18.416 -4.51172 36 -13.5684 52.7207c-9.02344 16.7354 -20.9111 31.0713 -35.584 43.0078
c-14.6719 11.9521 -30.3838 22.2715 -47.1035 30.9756s-33.7764 15.2803 -51.1846 19.7119c-29.0234 7.85645 -59.9033 11.7764 -92.6719 11.7764c-25.2637 0 -51.1201 -3.07227 -77.5674 -9.21582c-26.4482 -6.14453 -52.0479 -15.3604 -76.7998 -27.6484
c-24.7529 -12.2881 -44.9766 -29.2637 -60.6729 -50.9434c-15.7119 -21.6807 -23.5518 -46.1768 -23.5518 -73.4727zM115.904 150.016c0 12.6406 3.83984 22.7842 11.5195 30.4648c7.66406 7.67969 17.8242 11.5195 30.4639 11.5195
c12.624 0 23.2158 -3.83984 31.7441 -11.5195c8.52832 -7.68066 12.7998 -17.8242 12.7998 -30.4648c0 -12.3037 -4.35156 -22.5273 -13.0557 -30.7197c-8.7041 -8.20801 -19.2002 -12.3037 -31.4883 -12.3037s-22.3516 4.0957 -30.208 12.3037
c-7.85547 8.19238 -11.7754 18.416 -11.7754 30.7197zM134.336 66.0479h22.5283c8.54395 -15.3594 22.0957 -27.04 40.7041 -35.0723c18.6074 -8.01562 37.6318 -12.0312 57.0879 -12.0312c19.792 0 38.5762 4.01562 56.3193 12.0312
c17.7441 8.03223 32.0967 19.7129 43.0088 35.0723h20.9912c-8.52734 -21.168 -24.3994 -37.5518 -47.6318 -49.1357c-23.2002 -11.6318 -47.4395 -17.4238 -72.6875 -17.4238c-24.5762 0 -48.7207 5.8877 -72.4482 17.6641
c-23.7275 11.792 -39.6963 28.0635 -47.8721 48.8955zM306.352 150.016c0 12.9766 3.9209 23.2002 11.7607 30.7207c7.87207 7.50391 18.2881 11.2637 31.2637 11.2637c11.5996 0 21.5039 -4.0957 29.6797 -12.2881c8.19238 -8.20801 12.2881 -18.0957 12.2881 -29.6963
c0 -11.5996 -4.0957 -21.6641 -12.2881 -30.208c-8.19141 -8.54395 -18.0957 -12.8154 -29.6797 -12.8154c-12.6396 0 -22.9756 4.01562 -30.9922 12.0322c-8.01562 8.03125 -12.0322 18.3672 -12.0322 30.9912zM436.928 389.632
c0 -11.9521 4.27246 -22.1914 12.7998 -30.7197c8.52832 -8.54395 18.7842 -12.7998 30.7207 -12.7998c12.2881 0 22.3516 4.19141 30.2236 12.5439c7.83984 8.35156 11.7598 18.6875 11.7598 30.9756c0 11.6006 -4.0957 21.5039 -12.3037 29.6963
c-8.19238 8.19141 -18.0801 12.2881 -29.6797 12.2881c-11.6006 0 -21.7441 -4.17578 -30.4639 -12.5439c-8.7041 -8.36816 -13.0566 -18.1758 -13.0566 -29.4404zM444.096 245.76c18.7686 -12.2881 34.9766 -28.0635 48.624 -47.3594
c13.6641 -19.2803 23.2158 -39.6807 28.6885 -61.1846c20.1279 14.6719 30.208 31.0566 30.208 49.1523c0 19.792 -6.06445 36.8643 -18.1758 51.2002c-12.1289 14.3359 -27.9043 21.5039 -47.376 21.5039c-15.3447 0 -29.3447 -4.43262 -41.9688 -13.3125z" />
    <glyph glyph-name="uniF10D" unicode="&#xf10d;" 
d="M-29.4404 357.888c0 6.83203 2.22461 12.4482 6.65625 16.8965c4.43262 4.44824 10.0801 6.65625 16.8965 6.65625h120.319c5.45605 0 10.3203 -1.61621 14.5928 -4.86426c4.27148 -3.24805 7.08789 -7.58398 8.44727 -13.0566l12.2881 -50.1758h345.072l3.59961 10.752
c3.4082 10.9287 10.752 16.3848 22.0166 16.3848c3.07129 0 5.2959 -0.336914 6.65527 -1.02441c5.10449 -1.36035 9.2002 -4.0957 12.2881 -8.19238c3.08887 -4.0957 4.6084 -8.7041 4.6084 -13.8232c0 -1.69629 -0.335938 -3.9209 -1.02441 -6.65625l-60.416 -201.216
c-1.37598 -5.12012 -4.0957 -9.2168 -8.19141 -12.2881c-4.0957 -3.07227 -8.71973 -4.6084 -13.8242 -4.6084h-286.208c-5.45605 0 -10.3203 1.69629 -14.5918 5.10449c-4.27246 3.42383 -7.08789 7.67969 -8.44824 12.8154l-55.2959 224.256h-101.888
c-6.48047 0 -12.0322 2.22461 -16.6406 6.65625c-4.60742 4.43164 -6.91211 9.9043 -6.91211 16.3838zM161.024 266.752l31.7432 -126.976h250.368l1.00781 4.5918l36.8809 122.368h-320v0.015625zM182.528 18.9443c0 12.9756 4.6875 24.0635 14.0801 33.2793
c9.3916 9.2168 20.5752 13.8242 33.5352 13.8242s24.0645 -4.60742 33.2803 -13.8242c9.21582 -9.21582 13.8242 -20.3193 13.8242 -33.2793s-4.6084 -24.0645 -13.8242 -33.2803s-20.3203 -13.8076 -33.2803 -13.8076s-24.1436 4.5918 -33.5352 13.8076
c-9.37598 9.21582 -14.0801 20.3037 -14.0801 33.2803zM215.808 226.816h84.9922v-47.0889h-74.7676zM341.248 179.712l0.511719 47.0879h82.9443l-12.2881 -47.0879h-71.168zM360.192 18.9443c0 12.9756 4.7041 24.0635 14.0957 33.2793
c9.37598 9.2168 20.5596 13.8242 33.5361 13.8242c12.9756 0 24.0635 -4.60742 33.2793 -13.8242c9.2168 -9.21582 13.8086 -20.3193 13.8086 -33.2793s-4.5918 -24.0645 -13.8086 -33.2803c-9.21582 -9.21582 -20.3193 -13.8076 -33.2793 -13.8076
s-24.1602 4.5918 -33.5361 13.8076c-9.3916 9.21582 -14.0957 20.3037 -14.0957 33.2803z" />
    <glyph glyph-name="uniF12A" unicode="&#xf12a;" 
d="M0 190.976c0 46.4219 11.4346 89.2594 34.3037 128.513c22.8698 39.2533 53.9313 70.3145 93.1846 93.1836s82.0905 34.3037 128.512 34.3037c46.4212 0 89.2585 -11.4346 128.512 -34.3037s70.3148 -53.9303 93.1846 -93.1836
c22.8691 -39.2533 34.3037 -82.0908 34.3037 -128.513c0 -46.4212 -11.4346 -89.2585 -34.3037 -128.512c-22.8698 -39.2533 -53.9313 -70.3145 -93.1846 -93.1836c-39.2533 -22.8698 -82.0905 -34.3047 -128.512 -34.3047c-46.4212 0 -89.2585 11.4349 -128.512 34.3047
c-39.2533 22.8691 -70.3148 53.9303 -93.1846 93.1836c-22.8691 39.2533 -34.3037 82.0905 -34.3037 128.512zM66.0479 190.976c0 -22.1862 6.14421 -35.3275 18.4326 -39.4238c1.70638 -0.682292 4.60742 -1.36491 8.70312 -2.04785
c14.3366 -0.341146 28.8434 6.48568 43.5205 20.4805c13.9948 12.2878 23.8936 27.6478 29.6963 46.0801c8.5332 26.2826 10.2396 60.4157 5.11914 102.399c-0.682292 4.09635 -1.02344 6.99772 -1.02344 8.7041c-1.02409 2.04818 -1.02409 3.58431 0 4.6084
c0.341146 1.02344 2.5599 0.852539 6.65625 -0.512695c12.9707 -3.41341 26.2826 -8.36263 39.9355 -14.8477c15.7012 -7.16797 33.109 -19.1146 52.2236 -35.8398c15.36 -13.3118 30.2083 -28.5013 44.5449 -45.5684c11.2637 -13.3118 24.917 -31.0612 40.96 -53.248
c13.9941 -19.4557 29.0127 -32.597 45.0557 -39.4238c9.89844 -3.41341 18.0052 -4.60807 24.3203 -3.58398c6.31445 1.02409 11.2637 4.4375 14.8477 10.2402s6.14388 12.1172 7.67969 18.9434c1.53646 6.82682 2.30469 14.5068 2.30469 23.04
c0 16.3841 -2.04818 32.7682 -6.14453 49.1523c-1.02409 4.09635 -2.38932 8.875 -4.0957 14.3359c-4.77865 14.6777 -11.776 29.0137 -20.9922 43.0078c-17.7493 26.9655 -40.8747 48.1283 -69.376 63.4883s-58.7946 23.04 -90.8799 23.04
c-22.528 0 -43.8613 -3.75456 -64 -11.2637c-27.3066 -9.55729 -51.2855 -24.7467 -71.9365 -45.5684c-20.6504 -20.8216 -35.7542 -45.0563 -45.3115 -72.7041c-0.341146 -1.70638 -1.02376 -4.18099 -2.04785 -7.42383s-1.8776 -5.54688 -2.56055 -6.91211
c-4.0957 -17.0664 -5.97298 -33.4505 -5.63184 -49.1523z" />
    <glyph glyph-name="uniF12C" unicode="&#xf12c;" 
d="M82.1123 345.088h357.888l-33.792 -363.52l-145.408 -41.4727l-145.408 41.4727zM115.392 375.808v68.0967h23.04v-22.5283h20.4805v22.5283h22.5283v-68.0967h-22.5283v22.5283h-20.4805v-22.5283h-23.04zM148.672 270.848l12.2881 -136.191l0.511719 1.02344h153.601
l-5.12012 -57.8555l-49.1523 -13.8242l-49.6641 14.3359l-3.07129 34.8164h-45.0566l6.14453 -69.6484l91.6475 -26.1123l91.6641 26.1123l12.7998 136.704h-163.344l-4.0957 45.5684h171.52l4.1123 45.0557h-224.784v0.015625zM191.68 420.864v23.04h62.4639v-23.04
h-19.9678v-45.0566h-22.5117v45.0566h-19.9844zM263.872 375.808v68.0967h24.0635l13.8242 -23.5527l14.3359 23.5527h24.0645v-68.0967h-22.0322v34.8164l-16.3682 -25.5996v0.511719l-15.376 24.0635v-33.792h-22.5117zM351.936 375.808v68.0967h22.5283v-45.0566h31.7285
v-23.04h-54.2568z" />
    <glyph glyph-name="uniF11C" unicode="&#xf11c;" 
d="M42.1123 193.024c0 36.5273 4.95996 71.0078 14.8477 103.424c9.55176 31.4082 23.7119 58.5439 42.4961 81.4082c19.1201 22.8633 42.1602 40.2715 69.1201 52.2236c27.6475 12.2881 58.0156 18.4316 91.1357 18.4316c43.6797 0 80.7363 -10.416 111.104 -31.2314
c30.7197 -20.1445 53.9199 -46.9443 69.6475 -80.3838c15.6797 -32.4326 23.5361 -65.8887 23.5361 -100.353c0 -31.7441 -8.01562 -52.2236 -24.0801 -61.4561c-16.0322 -9.2002 -38.5596 -13.8076 -67.5684 -13.8076h-216.575
c0 -29.0078 5.12012 -54.2881 15.3594 -75.7764c9.9043 -22.1924 22.8643 -38.5596 38.9121 -49.1523c17.0557 -11.248 35.1523 -16.8955 54.2881 -16.8955c13.9844 0 26.0957 1.69629 36.3359 5.12012c10.5762 3.42383 21.1523 9.04004 31.7441 16.8955
c10.5596 7.52051 20.1279 15.5361 28.6562 24.0645c8.52734 8.52832 19.8076 20.3203 33.792 35.3438c5.12012 5.45605 13.1357 8.19238 24.0635 8.19238c11.6162 0 20.832 -3.60059 27.6484 -10.752c7.18359 -7.18457 10.7676 -17.0723 10.7676 -29.6963
c0 -10.9277 -3.91992 -24.2402 -11.7754 -39.9355c-7.16797 -14.6729 -19.1045 -29.1846 -35.8242 -43.5205c-15.7119 -14 -35.5039 -25.5996 -59.4082 -34.8164c-24.2236 -9.21582 -51.6963 -13.8232 -82.4316 -13.8232c-71.3281 0 -126.801 23.04 -166.385 69.1035
c-39.6152 46.4326 -59.4072 108.88 -59.4072 187.393zM155.776 232.96h200.704c-2.40039 42.6719 -12.624 74.752 -30.7207 96.2559c-17.4082 21.1523 -40.624 31.7441 -69.6475 31.7441c-28 0 -50.6885 -10.752 -68.0967 -32.2559
c-17.7275 -21.5039 -28.4795 -53.4238 -32.2393 -95.7441z" />
    <glyph glyph-name="uniF105" unicode="&#xf105;" 
d="M-31.8398 216.32c3.24805 54.0957 15.9521 99.4072 38.1436 135.936c16.7207 27.3125 33.0244 46.6885 48.8965 58.1123c15.8721 11.4395 39.5039 19.8877 70.9121 25.3438c10.2393 1.71191 19.9678 2.65625 29.1836 2.81641s17.8398 -0.512695 25.8564 -2.04785
c8.01562 -1.53613 15.5361 -3.50488 22.5273 -5.88867c7.00879 -2.38379 13.6641 -5.80762 19.9688 -10.2402c6.31934 -4.43164 12.0312 -8.7832 17.1514 -13.0557c5.12012 -4.27148 10.2402 -9.64746 15.3604 -16.1279c5.12012 -6.49609 9.64746 -12.3682 13.5518 -17.6641
c3.93652 -5.2959 8.03223 -11.8555 12.3037 -19.7119c4.27246 -7.85645 7.85645 -14.5918 10.7686 -20.2236c2.89551 -5.63281 6.38379 -12.5439 10.4795 -20.7363c2.38477 -4.76758 4.78418 -9.8877 7.16797 -15.3604c2.36816 -5.45605 4.94434 -11.5195 7.68066 -18.1758
c2.71973 -6.65625 4.94336 -11.8555 6.65527 -15.6162c2.7207 16.3848 12.3525 48.4639 28.9121 96.2559c16.5605 47.7764 28.0967 72.5283 34.5605 74.2402c31.0557 7.16797 55.8076 7.16797 74.2559 0c1.37598 -0.671875 2.91211 -2.04785 4.60742 -4.0957
c1.69629 -2.04785 2.89648 -3.4082 3.58496 -4.0957c-0.336914 -6.14453 -1.36035 -12.7207 -3.05664 -19.7119c-1.71191 -7.00879 -3.15137 -12.5449 -4.35156 -16.6406s-3.42383 -10.3359 -6.65625 -18.6875c-3.23242 -8.36816 -5.2002 -13.5684 -5.8877 -15.6162
l-81.9199 -224.769c-2.40039 -11.6152 0.751953 -26.9756 9.47168 -46.0791c8.6875 -19.1045 20.2236 -34.9922 34.5596 -47.6162c14.3359 -12.6406 26.96 -16.3838 37.8721 -11.2803c3.4082 1.71191 6.49609 5.2959 9.21582 10.752
c2.73633 5.47168 5.12012 9.05566 7.16797 10.752c6.14453 5.12012 18.2725 7.77637 36.3525 7.93652c18.0801 0.191406 29.5195 -2.97656 34.3037 -9.47266c5.45605 -9.8877 7.32812 -20.5596 5.63184 -32c-1.69531 -11.4395 -6.99121 -22.6875 -15.8555 -33.7754
s-19.0244 -20.832 -30.4639 -29.1846c-11.4404 -8.36816 -24.0645 -14.5918 -37.8887 -18.6875c-13.8232 -4.09668 -26.3516 -4.95996 -37.6475 -2.56055c-9.8877 2.04785 -19.1045 5.2002 -27.6484 9.47266c-8.52734 4.28711 -15.5361 8.62402 -20.9912 13.0557
c-5.47266 4.43164 -11.2803 10.6562 -17.4082 18.6875c-6.16016 8.0166 -10.8486 14.5928 -14.0967 19.7129c-3.24805 5.10352 -7.83984 12.7832 -13.8076 23.0234c-5.98438 10.2559 -10.3359 17.7441 -13.0557 22.5283
c-1.37598 -0.688477 -2.38477 -1.37598 -3.05664 -2.06445c-8.20801 -19.7754 -22.0312 -37.9678 -41.4873 -54.5117s-41.1201 -29.3604 -65.0244 -38.3838c-23.8877 -9.05664 -49.4883 -12.3682 -76.7998 -10c-27.3125 2.38379 -52.0479 11.6162 -74.2402 27.6641
c-29.0078 21.1514 -51.3604 55.8877 -67.0723 104.191c-15.7119 48.3047 -21.9199 99.5039 -18.6875 153.601zM46.2402 222.72c-4.43262 -36.8633 -2.89648 -72.8799 4.60742 -108.031c7.50391 -35.1523 19.9688 -59.2168 37.376 -72.1924
c9.55273 -7.16797 19.1201 -12.3682 28.6729 -15.6318c9.55176 -3.23242 18.3359 -5.2002 26.3672 -5.87207c8.0166 -0.688477 16.3848 0.943359 25.0879 4.86426c8.7041 3.91992 16.0488 7.51953 22.0166 10.752c5.9834 3.23145 12.9756 9.21582 20.9922 17.9199
c8.01562 8.7041 14.0801 15.4395 18.1758 20.2236s9.72754 12.624 16.8955 23.5684c7.16797 10.9121 11.8564 18.2559 14.0801 22c2.22461 3.75977 6.38477 10.9434 12.5439 21.5195c1.69629 3.07227 3.05664 5.45605 4.09668 7.16797
c-12.9766 54.9443 -23.9043 93.0078 -32.7686 114.176c-24.9121 59.04 -59.3916 85.5049 -103.424 79.3604c-19.1201 -2.75195 -32.9443 -6.49609 -41.4717 -11.2803c-8.54395 -4.7832 -17.0723 -13.1357 -25.6006 -25.0879
c-13.9834 -18.7676 -23.2158 -46.5918 -27.6475 -83.4561z" />
    <glyph glyph-name="uniF100" unicode="&#xf100;" 
d="M0 -50.6885c0 17.4082 10.4108 35.5843 31.2324 54.5283c20.821 18.944 41.8128 34.0482 62.9756 45.3125l7.67969 -11.2646c-15.0182 -10.9225 -30.4635 -25.0023 -46.3359 -42.2393c-15.8717 -17.2376 -25.8558 -32.5124 -29.9521 -45.8242
c29.696 9.21615 74.9229 73.8988 135.681 194.048c22.1862 44.7148 39.7646 89.2588 52.7354 133.632c-11.2637 36.5228 -16.8955 70.9974 -16.8955 103.424c0 39.2533 8.02116 58.8799 24.0635 58.8799c7.85091 0 13.6536 -0.341146 17.4082 -1.02344
c3.75456 -0.682943 7.25326 -2.90169 10.4961 -6.65625s4.86426 -9.55729 4.86426 -17.4082c0 -5.11979 -0.512044 -9.89844 -1.53613 -14.3359l-13.8242 0.512695c-0.682292 8.87435 -3.58366 15.8714 -8.7041 20.9912
c-4.0957 -6.82617 -6.14355 -18.6022 -6.14355 -35.3281c0 -12.9707 1.53581 -29.0133 4.60742 -48.1279c1.02409 6.14453 2.47493 15.2754 4.35254 27.3926c1.87695 12.1172 3.49837 21.2477 4.86426 27.3916l13.3115 -1.53613
c-0.682292 -51.8822 -3.07161 -89.0872 -7.16797 -111.615c12.2878 -36.5228 27.0505 -66.2191 44.2881 -89.0889c17.2376 -22.8691 41.5576 -43.1784 72.96 -60.9277c23.2109 2.38932 43.0081 3.58398 59.3916 3.58398c60.7578 0 91.1367 -11.9466 91.1367 -35.8398
c0 -3.75456 -0.853516 -7.85059 -2.56055 -12.2881l-1.53613 0.511719c-1.70638 -14.3359 -13.141 -21.5039 -34.3037 -21.5039c-35.4987 0 -76.4587 12.2881 -122.88 36.8643c-75.0931 -7.50911 -141.482 -21.5039 -199.168 -41.9844
c-50.1758 -87.7227 -90.2826 -131.584 -120.32 -131.584c-2.38932 0 -4.77865 0.341471 -7.16797 1.02441s-4.52246 1.45085 -6.39941 2.30371c-1.8776 0.853516 -4.18164 2.04818 -6.91211 3.58398c-2.73112 1.53646 -4.7793 2.64583 -6.14453 3.32812
c-2.73047 2.73047 -4.0957 6.48503 -4.0957 11.2637zM162.816 79.8721c45.7383 18.4316 96.5967 32.9382 152.575 43.5195c-35.1569 24.9173 -63.1462 60.5869 -83.9678 107.009c-12.2878 -41.3014 -35.1569 -91.4775 -68.6074 -150.528zM411.648 105.472
c30.7194 -11.9466 54.9538 -17.9199 72.7031 -17.9199c5.12044 0 8.87533 0.512044 11.2646 1.53613c0 10.9225 -24.7467 16.3838 -74.2402 16.3838h-9.72754z" />
    <glyph glyph-name="uniF14F" unicode="&#xf14f;" 
d="M-37.5684 100.336c0 5.47168 0.592773 12.9756 1.79199 22.5283c1.2002 9.55176 2.81641 14.8477 4.86426 15.8721c2.04785 -1.02441 3.83984 -6.56055 5.37598 -16.6406c1.53613 -10.0635 2.30371 -17.3281 2.30371 -21.7598
c0 -4.78418 -0.767578 -12.0322 -2.30371 -21.7441s-3.32812 -15.1035 -5.37598 -16.1279c-4.43164 2.38379 -6.65625 15.0244 -6.65625 37.8721zM-4.7998 100.336c0 8.52832 0.864258 21.168 2.55957 37.9043c1.69629 16.7197 2.73633 27.1201 3.07227 31.2158
c0 2.04785 1.02441 3.07227 3.07227 3.07227c1.35938 0 2.38379 -1.02441 3.07129 -3.07227c4.09668 -44.0156 6.14453 -67.0557 6.14453 -69.1201c0 -8.19238 -0.944336 -20.3037 -2.81641 -36.3359c-1.8877 -16.0479 -2.99219 -26.1123 -3.32812 -30.2236
c-0.6875 -2.36816 -1.71191 -3.56836 -3.07129 -3.56836c-2.04785 0 -3.07227 1.18359 -3.07227 3.56836c-0.335938 3.75977 -1.36035 13.7432 -3.07227 29.9678c-1.69531 16.208 -2.55957 28.416 -2.55957 36.5918zM36.6719 100.336
c0 8.20801 0.847656 20.752 2.56055 37.6484c1.71191 16.8955 2.55957 26.208 2.55957 27.9033c0 3.07227 1.2002 4.6084 3.58398 4.6084c2.71973 0 4.0957 -1.53613 4.0957 -4.6084c3.76074 -38.5762 5.63184 -60.416 5.63184 -65.5518
c0 -5.10352 -1.87109 -28.3203 -5.63184 -69.6318c0 -2.71973 -1.35938 -4.0957 -4.0957 -4.0957c-2.38379 0 -3.58398 1.37598 -3.58398 4.0957c0 2.38379 -0.847656 12.3682 -2.55957 29.9521c-1.69629 17.5996 -2.56055 30.8154 -2.56055 39.6797zM83.7764 100.336
c0 12.9756 0.255859 26.7197 0.767578 41.2158c0.511719 14.5127 1.2002 30.7207 2.04785 48.6562c0.864258 17.9199 1.45605 31.8242 1.79199 41.7275c0 3.4082 1.53613 5.12012 4.6084 5.12012c3.4082 0 5.12012 -1.69531 5.12012 -5.12012
c0.335938 -5.45508 1.2793 -24.4951 2.81543 -57.0879c1.53613 -32.5918 2.30469 -57.4238 2.30469 -74.4961c0 -8.87988 -0.848633 -22 -2.56055 -39.4072c-1.71191 -17.4248 -2.55957 -27.3125 -2.55957 -29.6963c0 -3.42383 -1.69629 -5.12012 -5.12012 -5.12012
c-3.07227 0 -4.6084 1.69629 -4.6084 5.12012c-3.05566 45.04 -4.60742 68.0801 -4.60742 69.0879zM131.904 100.336c0 18.7842 0.511719 46 1.53613 81.6641c1.02344 35.6641 1.69531 57.5996 2.04785 65.792c0.6875 4.0957 2.73535 6.14355 6.14355 6.14355
s5.45605 -2.04785 6.14453 -6.14355c0.335938 -10.9277 1.10352 -33.6162 2.30371 -68.0801c1.2002 -34.4795 1.79199 -60.9443 1.79199 -79.376c0 -8.52832 -0.591797 -20.8164 -1.79199 -36.8643s-1.96777 -26.4473 -2.30371 -31.2314
c-0.672852 -4.09668 -2.7207 -6.14453 -6.14453 -6.14453s-5.45605 2.04785 -6.14355 6.14453c0 3.74414 -0.591797 13.8242 -1.79199 30.2236c-1.18457 16.3838 -1.79199 29.0078 -1.79199 37.8721zM180.544 100.336c0 13.6641 0.175781 28.1758 0.511719 43.5361
s0.768555 32.416 1.28027 51.2002c0.511719 18.7676 0.944336 33.2793 1.28027 43.5195c0.671875 5.12012 3.07227 7.68066 7.16797 7.68066s6.47949 -2.56055 7.16797 -7.68066c0.335938 -10.2402 0.767578 -24.752 1.28027 -43.5195
c0.511719 -18.7686 0.943359 -35.8398 1.2793 -51.2002s0.512695 -29.8721 0.512695 -43.5361c0 -0.671875 -1.02441 -23.0244 -3.07227 -67.0557v0.496094c-0.688477 -5.10449 -3.07227 -7.66406 -7.16797 -7.66406s-6.48047 2.38379 -7.16797 7.16797
c-2.04785 44.0312 -3.07227 66.3838 -3.07227 67.0557zM229.184 99.8398c0 1.02441 1.02441 60.9277 3.07227 179.712c0.688477 6.14453 3.4082 9.21582 8.19238 9.21582s7.50391 -3.07129 8.19141 -9.21582c2.04883 -118.784 3.07227 -178.672 3.07227 -179.712
c0 -0.335938 -1.02344 -22.0156 -3.07227 -65.0234c-0.6875 -5.79199 -3.40723 -8.7041 -8.19141 -8.7041s-7.50391 2.91211 -8.19238 8.7041c-2.04785 43.0078 -3.07227 64.6875 -3.07227 65.0234zM270.16 208.64c0 28.1602 0.160156 54.6885 0.496094 79.6162
c-0.335938 3.4082 1.79199 6.48047 6.39941 9.21582c4.6084 2.73633 10.1602 4.68848 16.6406 5.88867c6.47949 1.19922 12.3682 2.12793 17.6641 2.81543c5.2793 0.688477 9.47168 1.02441 12.5273 1.02441c33.1045 0 61.9521 -12.3682 86.5283 -37.1201
c24.5762 -24.7363 38.2236 -55.2158 40.9756 -91.3916c9.55273 4.43164 18.9443 6.65527 28.1602 6.65527c19.7764 0 36.7842 -7.75977 50.9443 -23.2959s21.3438 -34.3838 21.5039 -56.5762c0.192383 -22.1914 -6.91211 -41.0234 -21.248 -56.5596
s-31.4082 -23.3125 -51.1836 -23.3125h-201.232c-2.04785 0 -3.83984 1.02441 -5.37598 3.07227s-2.32031 4.27246 -2.32031 6.65625c0 18.7676 -0.0800781 45.3115 -0.255859 79.6162c-0.143555 34.3037 -0.223633 65.5361 -0.223633 93.6953z" />
    <glyph glyph-name="uniF116" unicode="&#xf116;" 
d="M32 148.992c0 23.8721 3.58398 46.5918 10.752 68.0801c7.16797 21.5039 15.4404 39.0879 24.832 52.7354c9.37598 13.6484 20.3838 26.3682 33.0244 38.1445c12.624 11.7754 22.3516 19.9678 29.1836 24.5762c6.83203 4.60742 13.3115 8.62402 19.4561 12.0312
c3.4082 1.69629 8.44824 4.27246 15.1035 7.68066c6.65625 3.4082 11.8564 6.14355 15.6162 8.19141c3.75977 2.04883 8.62402 4.95996 14.5918 8.7041c5.96875 3.74414 11.8564 8.0166 17.6641 12.7998c14.3359 11.6006 22.8643 30.8965 25.584 57.8564
c24.9443 -30.0322 43.0088 -48.7998 54.2881 -56.3203c8.52832 -5.79199 21.0723 -12.4473 37.6318 -19.9678c16.5605 -7.50391 29.1045 -13.8242 37.6484 -18.9443c6.48047 -3.75977 12.6396 -7.75977 18.416 -12.0312c5.80762 -4.24023 15.0244 -12.5283 27.6484 -24.8164
s23.2959 -25.2637 32 -38.9121c8.70312 -13.6475 16.6396 -31.5674 23.8076 -53.7598c7.15234 -22.1924 10.752 -45.5684 10.752 -70.1279c0 -63.5039 -21.7441 -115.568 -65.2803 -156.176c-43.5195 -40.6084 -95.8232 -60.9287 -156.943 -60.9287
c-39.6006 0 -76.5283 9.47266 -110.832 28.4004c-34.3047 18.96 -62.0322 45.4883 -83.2002 79.6318c-21.168 34.1279 -31.7441 71.8398 -31.7441 113.152zM129.28 71.6797c-0.688477 -21.5195 6.47949 -37.376 21.5039 -47.6318
c10.5918 -7.15137 26.624 -10.752 48.1279 -10.752c14 0 30.6396 5.02441 49.9199 15.0879c19.2959 10.0801 37.2002 20.0645 53.7598 29.9678c16.5605 9.88867 28.5918 14.6729 36.0967 14.3369c7.83984 -0.336914 21.0713 -9.88867 39.6797 -28.6729
c18.5918 -18.7832 30.624 -28.3359 36.0957 -28.6719c6.81641 -0.335938 12.5283 1.10449 17.1523 4.35254c4.5918 3.23145 9.96777 9.2959 16.1279 18.1758c11.248 16.7197 16.8955 36.6875 16.8955 59.8877c0 9.9043 -2.55957 19.2158 -7.66406 27.9043
c-5.11914 8.71973 -13.1514 13.0557 -24.0635 13.0557c-7.53613 0 -23.2158 -8.01562 -47.1201 -24.0635c-23.8721 -16.0322 -39.9199 -24.2402 -48.1279 -24.5762c-7.50391 0 -17.9043 4.7041 -31.2158 14.0801c-13.3125 9.3916 -28.416 18.8643 -45.3125 28.416
c-16.9121 9.55176 -33.7119 14.3359 -50.4316 14.3359c-22.1924 -0.335938 -41.2158 -8.01562 -57.0879 -23.0244c-15.8887 -15.0078 -23.9844 -32.416 -24.3359 -52.208zM234.256 -20.4805c-4.1123 -3.40723 -4.1123 -6.83105 0 -10.2393
c15.6797 -14.3359 43.8398 -19.6318 84.4639 -15.8721c7.83984 0.6875 15.9688 2.65625 24.3203 5.8877c8.36816 3.23242 14.6875 6.24023 18.96 8.95996c4.27246 2.73633 7.07227 4.78418 8.44824 6.16016c1.35938 1.36035 2.03223 4.0957 2.03223 8.19238
c-1.00879 4.0957 -3.4082 4.60742 -7.15234 1.53516c-14 -10.9277 -35.1523 -16.3672 -63.5039 -16.3672c-25.6006 0 -44.3525 4.7832 -56.3203 14.3359c-1.02344 0.6875 -2.36816 1.00781 -4.0957 1.00781c-1.71191 -0.0322266 -4.09668 -1.21582 -7.15234 -3.60059z
M280.32 6.14355c2.39941 -2.73535 7.16797 -0.863281 14.3359 5.64844c0.6875 0.335938 2.04785 1.36035 4.0957 3.05566c2.04785 1.71191 3.4082 2.81641 4.0957 3.32812c0.688477 0.512695 2.06445 1.36035 4.09668 2.56055
c2.06348 1.19922 3.74414 1.95215 5.12012 2.30371s3.32715 0.6875 5.8877 1.02441c2.55957 0.335938 5.2002 0.511719 7.93555 0.511719c5.45605 0 9.88867 -0.768555 13.3125 -2.30371c3.42383 -1.55273 5.55176 -2.91211 6.38379 -4.1123
c0.864258 -1.18457 2.14355 -3.32812 3.83984 -6.38379c1.71191 -3.4248 3.00781 -5.37598 3.83984 -5.88867c0.832031 -0.511719 2.12793 -0.416016 3.83984 0.255859c4.09668 2.38477 5.28027 5.79199 3.58496 10.2402
c-3.07227 8.87988 -6.83203 14.6885 -11.2646 17.4082c-4.0957 3.08789 -11.4395 4.62402 -22.0156 4.62402c-8.87988 0 -15.8564 -1.02441 -20.9922 -3.07227c-5.80762 -2.38379 -13.3125 -7.85547 -22.5283 -16.3838
c-5.10352 -4.1123 -6.28809 -8.38379 -3.56738 -12.8164z" />
    <glyph glyph-name="uniF139" unicode="&#xf139;" 
d="M-30.2881 134.144v77.3125c0 3.4082 1.2002 6.40039 3.58398 8.95996s5.45605 3.83984 9.21582 3.83984h135.681l-58.8809 -102.912h-76.7998c-3.74414 0 -6.81543 1.18457 -9.21582 3.60059c-2.38379 2.36719 -3.58398 5.43945 -3.58398 9.19922zM32.1758 9.21582
l33.792 -19.4717zM37.3115 31.4883c-1.02344 3.58398 -0.6875 6.92773 1.02441 9.9834l155.648 270.336c1.69531 3.07227 4.27148 5.04004 7.67969 5.88867c3.4082 0.847656 6.65625 0.431641 9.72754 -1.28027l33.2803 -18.9443
c3.4082 -1.69531 5.55176 -4.35156 6.40039 -7.93555c0.847656 -3.58398 0.431641 -6.91211 -1.28027 -9.98438l-155.136 -270.336c-1.71191 -3.07227 -4.35254 -5.02344 -7.93652 -5.8877s-6.91211 -0.416016 -9.9834 1.28027l-33.2803 19.4561
c-3.08789 1.37598 -5.12012 3.83984 -6.14453 7.42383zM195.008 121.344l58.8799 102.912h34.3203l48.1279 -102.912h-141.328zM234.944 441.344c0.335938 3.07227 1.35938 5.12012 3.07129 6.14453c3.4082 1.71191 9.47266 -3.58398 18.1768 -15.8721
s20.9111 -32.0801 36.6074 -59.3926c15.7119 -27.3115 26.2881 -45.2314 31.7441 -53.7598c9.56836 -15.0078 22.4316 -37.2959 38.6562 -66.8154c16.2236 -29.5205 31.7441 -58.3682 46.5918 -86.5283s22.2881 -42.4004 22.2881 -42.752
c3.74414 -6.49609 3.4082 -12.6406 -1.02441 -18.4326c-4.43164 -5.80762 -9.71191 -9.90332 -15.8721 -12.2871c-6.14355 -2.75195 -10.2393 -4.28809 -12.2871 -4.62402c-2.06445 -0.335938 -7.16895 0.863281 -15.377 3.59961
c-10.2236 5.12012 -42.6553 72.1924 -97.2637 201.216c-1.69629 3.74414 -4.01562 8.95996 -6.92773 15.6162s-5.79199 13.1357 -8.68848 19.4561c-2.91211 6.32031 -6.06348 13.4717 -9.4873 21.5039c-3.4248 8.03223 -6.57617 15.5361 -9.47266 22.5283
c-2.91211 6.99121 -5.80762 14.1592 -8.7041 21.5039c-2.91113 7.34375 -5.21582 14 -6.91113 19.9678c-1.69629 5.98438 -3.07227 11.5195 -4.09668 16.6396c-1.02344 5.12012 -1.37598 9.2168 -1.02344 12.2881zM402.88 224.256h120.32
c3.4082 0 6.39941 -1.28027 8.97559 -3.83984c2.56055 -2.55957 3.83984 -5.55176 3.83984 -8.95996v-77.3125c0 -3.40723 -1.2793 -6.38379 -3.83984 -8.95996c-2.55957 -2.5752 -5.56738 -3.83984 -8.97559 -3.83984h-68.0967
c-1.37598 5.47266 -2.71973 9.39258 -4.0957 11.7764l-12.2881 23.5518c-21.8398 41.3125 -33.792 63.8242 -35.8398 67.584zM409.536 62.2236c1.00781 3.56836 3.23145 6.22461 6.65625 7.91992l18.9434 9.72852c3.4082 1.69629 7.00781 1.96777 10.752 0.767578
c3.74414 -1.19922 6.49609 -3.50391 8.19238 -6.92773l15.8721 -30.7197c4.0957 -8.19238 2.39941 -14.8486 -5.12012 -19.9678l-13.8076 -8.19238c-3.4082 -1.69629 -7.00879 -2.12793 -10.752 -1.28027c-3.74414 0.864258 -6.65625 3.00781 -8.7207 6.40039
l-20.4639 31.7441c-2.08008 3.42383 -2.5918 6.92773 -1.55176 10.5273zM448.688 -11.7764c0.191406 5.47266 0.863281 9.04004 2.06348 10.752c1.18359 1.71289 3.3125 4.09668 6.38379 7.16797l12.3047 4.6084c20.8154 4.0957 33.0879 -7.83984 36.8633 -35.8398
c1.00781 -10.9121 0.864258 -23.8877 -0.511719 -38.9121c-1.37598 4.0957 -8.87988 9.12012 -22.5283 15.0879c-13.6641 5.98438 -23.0234 12.5605 -28.1602 19.7119c-4.44727 6.17578 -6.5752 11.9678 -6.41504 17.4238z" />
    <glyph glyph-name="uniF131" unicode="&#xf131;" 
d="M0 192c0 46.4212 11.4346 89.2585 34.3037 128.512c22.8698 39.2533 53.9313 70.3148 93.1846 93.1846c39.2533 22.8691 82.0905 34.3037 128.512 34.3037c46.4212 0 89.2585 -11.4346 128.512 -34.3037c39.2533 -22.8698 70.3148 -53.9313 93.1846 -93.1846
c22.8691 -39.2533 34.3037 -82.0905 34.3037 -128.512s-11.4346 -89.2585 -34.3037 -128.512c-22.8698 -39.2533 -53.9313 -70.3148 -93.1846 -93.1846c-39.2533 -22.8691 -82.0905 -34.3037 -128.512 -34.3037c-46.4212 0 -89.2585 11.4346 -128.512 34.3037
c-39.2533 22.8698 -70.3148 53.9313 -93.1846 93.1846c-22.8691 39.2533 -34.3037 82.0905 -34.3037 128.512zM51.2002 192c0 -56.6615 19.9678 -104.96 59.9033 -144.896c39.9362 -39.9355 88.235 -59.9033 144.896 -59.9033c56.6615 0 104.96 19.9678 144.896 59.9033
c39.9355 39.9362 59.9033 88.235 59.9033 144.896s-19.9678 104.96 -59.9033 144.896c-39.9362 39.9355 -88.235 59.9033 -144.896 59.9033c-56.6615 0 -104.96 -19.9678 -144.896 -59.9033c-39.9355 -39.9362 -59.9033 -88.235 -59.9033 -144.896zM144.896 101.888
c0 11.2643 4.0957 20.9925 12.2871 29.1846c8.19206 8.19206 18.0908 12.2881 29.6963 12.2881c4.4375 0 9.21615 -0.853516 14.3359 -2.56055v153.601l148.48 25.5996v-201.728c-0.341797 -10.5814 -4.69401 -19.7975 -13.0566 -27.6484
s-17.8346 -11.7764 -28.416 -11.7764s-19.4561 3.6696 -26.624 11.0088c-7.16797 7.33854 -10.752 16.2985 -10.752 26.8799c0 11.2637 4.09603 20.9915 12.2881 29.1836s17.9202 12.2881 29.1846 12.2881c4.43685 0 9.21549 -0.85319 14.3359 -2.55957v106.495
l-102.4 -18.9434v-137.729c0 -11.2637 -4.09603 -20.9915 -12.2881 -29.1836s-17.9199 -12.2881 -29.1836 -12.2881c-10.5814 0 -19.5413 3.66927 -26.8799 11.0078s-11.0078 16.2985 -11.0078 26.8799z" />
    <glyph glyph-name="uniF166" unicode="&#xf166;" 
d="M44.5762 448h0.0322266h456.191v-311.68l-133.536 -133.504h-100.16l-66.7197 -66.8164h-66.8154v66.7842h-122.368v356.16zM89.0557 403.52v-322.815h100.225v-66.7197l66.7197 66.7197h122.4l77.9199 77.9199v244.896h-367.265zM211.52 180.864v133.536h44.4805
v-133.536h-44.4805zM333.888 180.864v133.536h44.4805v-133.536h-44.4805z" />
    </font>
</defs>
</svg>
